<?xml version="1.0" standalone="no"?>
<!DOCTYPE svg PUBLIC "-//W3C//DTD SVG 1.1//EN" "http://www.w3.org/Graphics/SVG/1.1/DTD/svg11.dtd" >
<svg xmlns="http://www.w3.org/2000/svg">
<metadata>Generated by IcoMoon</metadata>
<defs>
<font id="darwinex" horiz-adv-x="1024">
<font-face units-per-em="1024" ascent="960" descent="-64" />
<missing-glyph horiz-adv-x="1024" />
<glyph unicode="&#x20;" horiz-adv-x="512" d="" />
<glyph unicode="&#xe900;" glyph-name="play" d="M908.939 511.748l-739.504 410.78c-67.389 37.472-121.746 7.513-121.368-66.728l3.787-815.359c0.342-74.225 55.363-104.441 122.951-67.26l733.846 403.533c67.515 37.112 67.659 97.562 0.287 135.034v0z" />
<glyph unicode="&#xe901;" glyph-name="heart" d="M1004.966 595.538c0-77.713-44.778-137.127-44.778-137.127-24.606-32.618-68.914-82.63-98.52-111.146l-295.861-285.115c-29.578-28.516-78.001-28.516-107.578 0l-295.889 285.115c-29.578 28.516-73.914 78.527-98.505 111.146 0 0-44.795 59.414-44.795 137.127 0 147.385 123.97 266.83 276.914 266.83 78.658 0 149.688-31.6 200.085-82.366l5.6-5.633c5.688-6.566 15.047-6.566 20.734 0l5.603 5.633c50.394 50.765 121.424 82.366 200.082 82.366 152.945 0 276.914-119.448 276.914-266.83z" />
<glyph unicode="&#xe902;" glyph-name="hexagon" d="M512 960l443.405-256v-512l-443.405-256-443.405 256v512z" />
<glyph unicode="&#xe903;" glyph-name="hexagon-o" d="M512 960l-443.405-256v-512l443.405-256 443.405 256v512l-443.405 256zM512 857.6l354.724-204.8v-409.6l-354.724-204.8-354.724 204.8v409.6l354.724 204.8z" />
<glyph unicode="&#xe904;" glyph-name="square-o" d="M121.556 838.799v0-780.801c0 0.441 0.085 0.355-0.355 0.355h780.801c-0.441 0-0.355 0.085-0.355-0.355v780.801c0-0.441-0.085-0.355 0.355-0.355h-780.801c0.441 0 0.355-0.085 0.355 0.355v0zM24 887.599c0 26.731 22.22 48.401 48.401 48.401h879.201c26.731 0 48.401-22.22 48.401-48.401v-879.201c0-26.731-22.22-48.401-48.401-48.401h-879.201c-26.731 0-48.401 22.22-48.401 48.401v879.201z" />
<glyph unicode="&#xe905;" glyph-name="square" d="M89.068 935.998h845.865c35.936 0 65.066-29.13 65.066-65.066v-845.865c0-35.936-29.13-65.066-65.066-65.066h-845.865c-35.936 0-65.066 29.13-65.066 65.066v845.865c0 35.936 29.13 65.066 65.066 65.066z" />
<glyph unicode="&#xe906;" glyph-name="circle-o" d="M512 57.6v0c215.611 0 390.4 174.789 390.4 390.4s-174.789 390.4-390.4 390.4c-215.611 0-390.4-174.789-390.4-390.4s174.789-390.4 390.4-390.4v0zM512-40v0c-269.516 0-488 218.484-488 488s218.484 488 488 488c269.516 0 488-218.484 488-488s-218.484-488-488-488v0z" />
<glyph unicode="&#xe907;" glyph-name="circle" d="M512.003 936c-269.091 0-488.003-218.919-488.003-488s218.913-488 488.003-488c269.084 0 487.997 218.914 487.997 488s-218.913 488-487.997 488v0z" />
<glyph unicode="&#xe908;" glyph-name="amoeba-circle" d="M512.003 936c-269.089 0-488.003-218.92-488.003-488s218.914-488 488.003-488c269.083 0 487.997 218.915 487.997 488s-218.914 488-487.997 488v0zM630.005 570.030c1.573 0.59 25.472 10.054 40.063 42.888 17.221 38.744 17.708 70.045 17.713 70.363 0.129 13.618 11.21 24.64 24.813 24.64h0.114c13.657-0.070 24.699-11.096 24.699-24.754 0-1.674-0.254-41.484-21.99-90.396-23.618-53.131-64.804-68.168-69.418-69.711-2.599-0.869-5.251-1.28-7.85-1.28-10.388 0-20.069 6.57-23.533 16.973-4.299 12.894 2.587 26.828 15.39 31.279v0zM658.229 277.247l-39.701-54.59c-4.857-6.679-12.421-10.222-20.090-10.222-5.067 0-10.168 1.544-14.575 4.744-11.081 8.060-13.538 23.582-5.478 34.66l39.701 54.59c8.065 11.091 23.587 13.533 34.66 5.478 11.091-8.055 13.543-23.576 5.483-34.66v0zM557.64 806.13c11.782 7.002 27.006 3.145 34.013-8.631s3.145-27.001-8.632-34.013c-37.156-22.113-31.554-76.749-31.489-77.29 1.674-13.603-8-25.985-21.603-27.658-1.027-0.124-2.048-0.189-3.057-0.189-12.352 0-23.057 9.216-24.601 21.792-0.432 3.533-9.907 87.132 55.363 125.99v0zM257.808 296.14c-4.863-6.596-12.382-10.090-19.994-10.090-5.111 0-10.269 1.567-14.705 4.84-2.173 1.604-53.379 40.278-64.491 129.74-1.692 13.598 7.964 25.99 21.567 27.682 13.613 1.707 25.99-7.964 27.681-21.567 8.378-67.43 44.326-95.636 44.688-95.9 11.026-8.14 13.38-23.667 5.251-34.704v0zM290.114 519.126c-4.845-4.849-11.194-7.271-17.542-7.271s-12.705 2.421-17.542 7.271l-34.739 34.74c-9.692 9.687-9.692 25.4 0 35.087 9.681 9.692 25.405 9.692 35.087 0l34.74-34.74c9.692-9.687 9.692-25.4 0-35.087v0zM334.913 596.702c-5.468 16.44-22.095 66.465 2.491 126.179 7.827 19.006 29.572 28.075 48.588 20.248 19.006-7.827 28.069-29.583 20.248-48.589-14.060-34.138-4.689-62.321-0.691-74.351 1.793-5.399 3.489-10.496 3.489-17.346 0-20.561-16.66-37.221-37.221-37.221-18.016 0-33.035 12.798-36.481 29.798-0.124 0.393-0.269 0.824-0.427 1.286v0zM438.404 133.596c-4.834-6.839-12.501-10.486-20.279-10.486-4.953 0-9.956 1.48-14.306 4.555l-51.462 36.39c-11.192 7.91-13.846 23.394-5.931 34.585 7.91 11.192 23.398 13.841 34.585 5.931l51.462-36.39c11.187-7.91 13.846-23.394 5.931-34.585v0zM422.585 250.889c-1.503-0.277-2.998-0.406-4.467-0.406-11.761 0-22.208 8.396-24.381 20.377l-19.852 109.18c-2.452 13.484 6.492 26.401 19.971 28.848 13.489 2.486 26.401-6.492 28.848-19.971l19.852-109.18c2.457-13.484-6.487-26.401-19.971-28.848v0zM459.503 455.612h-51.279c-10.962 0-19.852 8.887-19.852 19.852s8.887 19.852 19.852 19.852h51.279c10.962 0 19.852-8.887 19.852-19.852s-8.887-19.852-19.852-19.852v0zM557.792 290.666l-28.119-56.243c-4.348-8.693-13.116-13.722-22.219-13.722-3.727 0-7.514 0.843-11.076 2.62-12.258 6.13-17.227 21.031-11.096 33.294l28.119 56.243c6.125 12.253 21.016 17.222 33.294 11.096 12.253-6.125 17.221-21.026 11.096-33.289v0zM554.13 359.826c-17.265 4.382-27.718 21.934-23.333 39.199l8.266 32.586c4.382 17.265 21.96 27.692 39.199 23.333 17.265-4.382 27.718-21.934 23.333-39.199l-8.266-32.586c-3.706-14.607-16.839-24.332-31.246-24.332-2.625 0-5.295 0.323-7.956 0.999v0zM664.972 118.697l-66.907-8.936c-1.118-0.15-2.225-0.222-3.316-0.222-12.247 0-22.899 9.061-24.565 21.533-1.81 13.582 7.726 26.070 21.311 27.881l66.907 8.937c13.636 1.837 26.065-7.731 27.881-21.311 1.81-13.582-7.721-26.070-21.311-27.881v0zM739.512 232.532c-1.314-0.21-2.62-0.313-3.911-0.313-11.994 0-22.544 8.714-24.482 20.938l-5.261 33.201c-2.144 13.538 7.092 26.249 20.625 28.393 13.543 2.16 26.249-7.093 28.393-20.625l5.261-33.201c2.144-13.533-7.092-26.249-20.625-28.393v0zM828.798 353.846c4.289-13.013-2.77-27.043-15.775-31.339-2.587-0.854-5.216-1.26-7.791-1.26-10.406 0-20.095 6.591-23.543 17.012-2.232 6.74-21.598 67.080-14.128 110.028 2.561 14.738 5.408 26.805 7.698 36.497 3.619 15.31 6.006 25.423 5.24 35.839-1.004 13.668 9.26 25.558 22.927 26.565 13.816 1.118 25.558-9.26 26.565-22.927 1.324-18.026-2.268-33.245-6.433-50.873-2.242-9.529-4.793-20.328-7.106-33.602-4.527-26.044 7.379-70.867 12.348-85.939v0z" />
<glyph unicode="&#xe909;" glyph-name="dna-circle" d="M512.003 936c269.083 0 487.997-218.915 487.997-488s-218.914-488-487.997-488c-269.089 0-488.003 218.92-488.003 488s218.914 488 488.003 488zM851.299 622.046c-12.501 2.794-25.847-5.783-28.449-17.434-0.723-2.756-3.355-11.791-9.646-23.942l-168.601 168.597c13.845 7.054 23.524 9.295 23.78 9.367 30.794 7.224 19.814 53.753-11.023 46.461-1.911-0.465-188.872-49.273-158.15-316.147-12.274 0.8-24.507 1.186-36.514 1.186-217.984 0-301.394-136.997-304.816-142.768-16.309-27.49 24.984-50.618 40.962-24.502 1.267 2.067 7.808 12.357 20.963 26.269l193.43-193.496c-13.78-13.035-24.103-19.623-26.060-20.827-27.132-16.156-2.899-56.895 24.269-41.118 6.5 3.889 158.108 96.949 141.594 341.449 195.485-22.693 296.423 76.585 316.226 158.346 2.973 12.964-5.304 25.867-17.964 28.556zM501.824 335.099l-102.604 102.627c32.737 4.959 69.209 5.947 105.531 2.934 3.084-36.882 2.096-72.344-2.928-105.56zM342.229 425.054l146.259-147.109c-14.646-43.35-32.421-72.477-44.933-87.068l-188.38 189.036c32.554 26.428 74.771 39.631 87.053 45.141zM544.875 581.395l100.129-100.493c-29.493-2.823-62.509-1.834-97.091 2.823-4.77 35.182-5.802 68.015-3.034 97.67zM702.664 492.386l-146.922 145.71c10.702 34.583 26.071 58.604 46.552 80.207l180.791-178.15-1.921-2.39c-28.769-27.859-66.23-43.301-78.499-45.38z" />
<glyph unicode="&#xe90a;" glyph-name="arrow-circle-right" d="M512.003 936c269.083 0 487.997-218.915 487.997-488s-218.914-488-487.997-488c-269.089 0-488.003 218.92-488.003 488s218.914 488 488.003 488zM860.118 452.997l-212.989 212.989c-12.995 12.995-34.069 12.995-47.064 0-12.998-12.998-12.998-34.069 0-47.064l156.179-156.179h-568.828c-18.379 0-33.278-14.902-33.278-33.278s14.902-33.278 33.278-33.278h568.828l-156.173-156.179c-12.998-12.998-12.998-34.068 0-47.064 6.496-6.495 15.016-9.746 23.532-9.746s17.035 3.254 23.532 9.746l212.983 212.989c12.998 12.998 12.998 34.068 0 47.064z" />
<glyph unicode="&#xe90b;" glyph-name="gear-circle" d="M512.003 936c269.083 0 487.997-218.915 487.997-488s-218.914-488-487.997-488c-269.089 0-488.003 218.92-488.003 488s218.914 488 488.003 488zM671.071 211.154l-23.597 52.385c22.495 16.512 41.815 37.056 56.912 60.5l53.729-20.358c10.276-3.894 21.754 1.281 25.647 11.553l19.746 52.124c1.869 4.932 1.702 10.405-0.464 15.217s-6.154 8.562-11.090 10.43l-53.729 20.358c4.234 27.567 3.374 55.746-2.533 83.024l52.385 23.597c4.809 2.167 8.562 6.154 10.43 11.090 1.869 4.932 1.702 10.405-0.464 15.217l-22.894 50.818c-4.511 10.017-16.294 14.472-26.303 9.966l-52.385-23.597c-16.512 22.495-37.056 41.815-60.5 56.912l20.358 53.729c3.89 10.272-1.281 21.754-11.553 25.647l-52.12 19.75c-4.928 1.864-10.401 1.702-15.217-0.464-4.809-2.167-8.562-6.154-10.43-11.090l-20.354-53.725c-27.596 4.256-55.823 3.378-83.028-2.531l-23.592 52.381c-2.167 4.809-6.154 8.562-11.090 10.43-4.928 1.864-10.405 1.702-15.217-0.464l-50.823-22.894c-10.017-4.511-14.477-16.286-9.966-26.303l23.597-52.385c-22.495-16.512-41.815-37.056-56.912-60.5l-53.729 20.358c-4.928 1.864-10.401 1.698-15.217-0.464-4.809-2.167-8.562-6.154-10.43-11.090l-19.746-52.12c-3.89-10.272 1.281-21.754 11.553-25.647l53.729-20.358c-4.234-27.563-3.374-55.751 2.533-83.024l-52.389-23.597c-4.809-2.167-8.562-6.154-10.43-11.090-1.869-4.932-1.702-10.405 0.464-15.217l22.894-50.818c2.165-4.809 6.154-8.562 11.086-10.43 4.936-1.869 10.405-1.706 15.217 0.464l52.385 23.597c16.512-22.499 37.052-41.815 60.5-56.912l-20.358-53.729c-3.89-10.272 1.281-21.754 11.553-25.647l52.124-19.746c2.272-0.859 4.663-1.289 7.046-1.289 2.788 0 5.578 0.584 8.171 1.754 4.809 2.167 8.562 6.154 10.43 11.090l20.354 53.725c27.596-4.252 55.827-3.378 83.028 2.531l23.592-52.381c2.167-4.809 6.154-8.562 11.090-10.43 4.932-1.869 10.409-1.706 15.217 0.464l50.818 22.89c10.021 4.511 14.485 16.286 9.973 26.303zM638.112 400.22c-19.741-52.112-70.432-87.121-126.136-87.121-16.294 0-32.361 2.958-47.755 8.792-33.686 12.762-60.385 37.878-75.18 70.725-14.793 32.843-15.911 69.483-3.149 103.169 19.741 52.112 70.432 87.121 126.136 87.121 16.294 0 32.361-2.959 47.755-8.792 33.686-12.762 60.385-37.878 75.18-70.721 14.797-32.847 15.915-69.487 3.149-103.173z" />
<glyph unicode="&#xe90c;" glyph-name="dollar-circle" d="M512 936c-269.496 0-488-218.504-488-488s218.504-488 488-488c269.555 0 488 218.504 488 488s-218.445 488-488 488v0zM645.078 259.579c-24.006-26.927-58.674-42.773-104.009-47.539v-69.040h-57.785v68.684c-75.595 7.743-122.358 51.706-140.406 131.77l89.355 23.292c8.28-50.337 35.683-75.477 82.206-75.477 21.744 0 37.828 5.36 48.074 16.143s15.368 23.768 15.368 39.018c0 15.785-5.124 27.761-15.368 35.862-10.246 8.158-33.062 18.467-68.387 30.976-31.751 11.017-56.592 21.864-74.463 32.702-17.871 10.722-32.407 25.793-43.546 45.156-11.139 19.422-16.74 42.059-16.74 67.793 0 33.776 10.008 64.217 29.906 91.262 19.898 26.986 51.23 43.487 94.003 49.502v53.314h57.785v-53.316c64.573-7.745 106.394-44.26 125.394-109.609l-79.585-32.645c-15.547 44.798-39.497 67.194-72.019 67.194-16.322 0-29.43-5.004-39.256-15.012-9.89-10.008-14.833-22.161-14.833-36.397 0-14.536 4.766-25.675 14.298-33.479 9.473-7.745 29.906-17.336 61.12-28.831 34.313-12.511 61.238-24.365 80.719-35.504 19.54-11.139 35.087-26.568 46.761-46.167 11.618-19.66 17.452-42.596 17.452-68.865 0-40.325-12.035-73.922-36.041-100.79v0z" />
<glyph unicode="&#xe90d;" glyph-name="close-circle-o" d="M512 57.6v0c215.611 0 390.4 174.789 390.4 390.4s-174.789 390.4-390.4 390.4c-215.611 0-390.4-174.789-390.4-390.4s174.789-390.4 390.4-390.4v0zM512-40c-269.516 0-488 218.484-488 488s218.484 488 488 488c269.516 0 488-218.484 488-488s-218.484-488-488-488zM474.113 449.691l-97.243 141.8h70.244l66.051-101.436 66.577 101.436h69.721l-97.506-141.8 102.485-148.091h-69.721l-71.556 108.513-71.293-108.513h-69.721l101.961 148.091z" />
<glyph unicode="&#xe90e;" glyph-name="user-circle" d="M512 38.080v0c226.394 0 409.92 183.526 409.92 409.92s-183.526 409.92-409.92 409.92c-226.394 0-409.92-183.526-409.92-409.92s183.526-409.92 409.92-409.92v0zM512-40c-269.516 0-488 218.484-488 488s218.484 488 488 488c269.516 0 488-218.484 488-488s-218.484-488-488-488zM726.446 259.437c-2.105 132.83-19.453 170.681-152.206 194.639 0 0-18.688-23.813-62.243-23.813s-62.247 23.813-62.247 23.813c-131.303-23.699-149.707-60.985-152.126-190.324-0.199-10.562-0.29-11.117-0.327-9.891 0.008-2.296 0.019-6.547 0.019-13.955 0 0 31.605-63.715 214.681-63.715 183.072 0 214.681 63.715 214.681 63.715 0 4.761 0.003 8.072 0.008 10.323-0.034-0.759-0.106 0.71-0.24 9.208zM726.689 250.231c0.15 1.272 0.050 8.83 0 0zM297.334 252.346c-0.046 7.595-0.092 2.141 0 0zM512 464.671c62.775 0 113.67 61.814 113.67 138.065 0 76.253-16.709 138.067-113.67 138.067s-113.673-61.814-113.673-138.067c0-76.251 50.895-138.065 113.673-138.065z" />
<glyph unicode="&#xe90f;" glyph-name="close" d="M988.27 831.36l-104.644 104.644-383.36-383.36h23.458l-383.36 383.36-116.367-116.367 383.36-383.36v23.458l-383.36-383.36 116.367-116.367 383.36 383.36h-23.458l383.36-383.36 116.367 116.367-383.36 383.36v-23.458l383.36 383.36-11.736 11.736z" />
<glyph unicode="&#xe910;" glyph-name="comment" d="M87.646 180.665h94.021c-0.093-0.34-0.276-0.647-0.369-0.987l-39.024-145.861c-5.541-20.68-1.999-31.881 7.881-31.881 5.801 0 13.787 3.844 23.418 11.894l199.749 166.837h563.039c33.961 0 61.503 27.524 61.503 61.503v590.397c0 33.961-27.526 61.503-61.503 61.503h-848.713c-33.959 0-61.503-27.528-61.503-61.503v-590.396c0-33.98 27.528-61.503 61.503-61.503v0z" />
<glyph unicode="&#xe911;" glyph-name="comments" d="M45.132 345.042h69.001c-0.069-0.248-0.203-0.476-0.271-0.724l-28.639-107.042c-4.066-15.176-1.467-23.397 5.783-23.397 4.257 0 10.119 2.82 17.186 8.728l146.589 122.435h413.196c24.923 0 45.134 20.201 45.134 45.134v433.275c0 24.923-20.202 45.134-45.134 45.134h-622.843c-24.921 0-45.134-20.204-45.134-45.134v-433.273c0-24.937 20.204-45.134 45.134-45.134zM978.869 689.373h-231.891v-299.206c0-43.566-35.449-79.015-79.015-79.015h-357.069v-100.186c0-24.921 20.204-45.134 45.134-45.134h350.802l146.587-122.435c19.129-15.979 29.415-9.407 22.98 14.667l-28.639 107.042c-0.067 0.248-0.201 0.476-0.27 0.724h131.377c24.923 0 45.136 20.204 45.136 45.134v433.284c-0.012 24.921-20.213 45.124-45.134 45.124z" />
<glyph unicode="&#xe912;" glyph-name="dollar" d="M721.018 146.526c-38.411-43.082-93.879-68.436-166.414-76.061v-110.465h-92.454v109.893c-120.95 12.389-195.775 82.732-224.65 210.832l142.968 37.268c13.25-80.539 57.093-120.761 131.532-120.761 34.789 0 60.525 8.575 76.918 25.832s24.589 38.032 24.589 62.432c0 25.257-8.2 44.418-24.589 57.379-16.393 13.054-52.9 29.55-109.418 49.563-50.8 17.629-90.55 34.982-119.143 52.322-28.593 17.157-51.85 41.268-69.675 72.25-17.825 31.075-26.782 67.293-26.782 108.468 0 54.043 16.013 102.75 47.85 146.018 31.836 43.175 81.968 69.579 150.404 79.207v85.304h92.454v-85.307c103.318-12.393 170.229-70.818 200.632-175.375l-127.338-52.232c-24.875 71.675-63.196 107.513-115.232 107.513-26.118 0-47.086-8.007-62.811-24.018-15.825-16.013-23.732-35.457-23.732-58.236 0-23.257 7.625-41.082 22.875-53.568 15.157-12.393 47.85-27.736 97.793-46.132 54.9-20.018 97.982-38.982 129.15-56.807 31.263-17.825 56.139-42.511 74.818-73.868 18.586-31.454 27.922-68.153 27.922-110.185 0-64.519-19.254-118.276-57.667-161.262v0z" />
<glyph unicode="&#xe913;" glyph-name="ellipsis-h" d="M872 328c66.274 0 120 53.726 120 120s-53.726 120-120 120c-66.274 0-120-53.726-120-120s53.726-120 120-120zM512 328c66.274 0 120 53.726 120 120s-53.726 120-120 120c-66.274 0-120-53.726-120-120s53.726-120 120-120zM152 328c66.274 0 120 53.726 120 120s-53.726 120-120 120c-66.274 0-120-53.726-120-120s53.726-120 120-120z" />
<glyph unicode="&#xe914;" glyph-name="list" d="M35.199 773.091v-130.036h130.036v130.036h-130.036zM251.927 773.091v-130.036h606.837v130.036h-606.837zM35.199 513.018v-130.036h130.036v130.036h-130.036zM251.927 513.018v-130.036h433.454v130.036h-433.454zM35.199 252.945v-130.036h130.036v130.036h-130.036zM251.927 252.945v-130.036h736.874v130.036h-736.874z" />
<glyph unicode="&#xe915;" glyph-name="bars" d="M36 130.667h952v105.777h-952v-105.777zM36 395.111h952v105.777h-952v-105.777zM36 765.334v-105.777h952v105.777h-952z" />
<glyph unicode="&#xe916;" glyph-name="power-off-2" d="M511.996 448c22.182 0 41.394 6.942 57.59 20.846 16.212 13.89 24.334 30.353 24.334 49.367v351.089c0 19.021-8.114 35.476-24.334 49.367-16.196 13.904-35.401 20.852-57.59 20.852s-41.386-6.955-57.598-20.852c-16.212-13.89-24.318-30.353-24.318-49.367v-351.089c0-19.014 8.106-35.476 24.318-49.367 16.212-13.904 35.417-20.846 57.598-20.846v0zM952.020 668c-34.352 68.688-82.662 126.291-144.956 172.795-17.918 13.653-38.185 18.986-60.801 16.001s-40.534-13.653-53.762-31.995c-13.653-17.918-18.877-38.075-15.679-60.479 3.189-22.411 13.763-40.432 31.681-54.084 41.799-31.571 74.139-70.188 96.951-115.844 22.828-45.648 34.234-94.296 34.234-145.914 0-44.383-8.641-86.724-25.915-127.045-17.282-40.322-40.644-75.2-70.086-104.642-29.442-29.434-64.312-52.796-104.634-70.078s-82.67-25.931-127.045-25.931c-44.367 0-86.716 8.649-127.037 25.931s-75.2 40.644-104.642 70.078c-29.434 29.442-52.796 64.32-70.078 104.642s-25.923 82.662-25.923 127.045c0 51.618 11.414 100.258 34.242 145.914 22.828 45.648 55.145 84.265 96.959 115.844 17.918 13.661 28.476 31.681 31.681 54.084 3.197 22.396-2.027 42.561-15.679 60.479-13.228 18.342-31.037 29.010-53.44 31.995s-42.78-2.349-61.123-16.001c-62.301-46.504-110.612-104.108-144.963-172.795-34.352-68.695-51.524-141.868-51.524-219.519 0-66.567 13.016-130.132 39.041-190.721 26.033-60.589 61.013-112.851 104.964-156.802 43.943-43.943 96.213-78.939 156.802-104.948 60.589-26.033 124.162-39.057 190.721-39.057s130.132 13.024 190.721 39.057c60.589 26.017 112.858 61.005 156.802 104.948s78.923 96.213 104.956 156.802c26.025 60.589 39.033 124.162 39.033 190.721 0 77.651-17.148 150.824-51.5 219.519v0z" />
<glyph unicode="&#xe917;" glyph-name="plus" d="M945.778 529.335h-406.679l54.222-54.222v460.887h-162.614v-460.887l54.222 54.222h-460.929v-162.667h460.929l-54.222 54.222v-460.887h162.614v460.887l-54.222-54.222h460.901v162.667h-54.222z" />
<glyph unicode="&#xe918;" glyph-name="wallet" d="M90.416 88h778.709c32.229 0 58.418 26.637 58.418 59.415v134.078h-279.529c-20.934 0-41.378 4.159-60.559 12.478-18.499 7.922-35.148 19.41-49.363 33.864s-25.509 31.39-33.298 50.205c-8.080 19.508-12.267 40.301-12.267 61.592v16.735c0 21.29 4.089 42.086 12.267 61.592 7.789 18.815 19.084 35.749 33.298 50.204 14.216 14.458 30.864 25.943 49.363 33.865 19.181 8.218 39.626 12.478 60.559 12.478h279.529v134.078c0 32.778-26.19 59.415-58.418 59.415h-778.709c-32.228 0-58.418-26.637-58.418-59.415v-601.173c0-32.777 26.191-59.415 58.418-59.415v0zM991.999 510.532c0 24.657-19.57 44.561-43.812 44.561h-300.172c-53.649 0-97.071-44.166-97.071-98.726v-16.735c0-54.563 43.424-98.725 97.071-98.725h300.172c24.243 0 43.812 19.905 43.812 44.561v125.066zM663.887 395.567c-28.527 0-51.602 23.468-51.602 52.483s23.074 52.483 51.602 52.483 51.602-23.468 51.602-52.483c0-29.014-23.074-52.483-51.602-52.483v0z" />
<glyph unicode="&#xe919;" glyph-name="suitcase" d="M916.199 740.189h-185.204c-11.167 74.586-71.788 131.81-144.815 131.81h-148.402c-73.044 0-133.607-57.224-144.815-131.81h-185.163c-44.208 0-80.374-37.024-80.374-82.279v-189.92c0-45.417 34.544-82.279 77.151-82.279h323.651c1.099 23.634 10.626 44.966 25.691 60.331 0.462 0.451 1.003 0.843 1.485 1.297 3.337 3.27 6.81 6.356 10.609 9.031 1.351 0.967 2.892 1.624 4.302 2.489 3.125 1.913 6.211 3.907 9.586 5.388 2.642 1.173 5.496 1.851 8.275 2.735 2.392 0.762 4.668 1.77 7.156 2.305 5.4 1.173 10.975 1.789 16.666 1.789 5.708 0 11.263-0.638 16.646-1.789 2.468-0.535 4.764-1.543 7.176-2.305 2.779-0.884 5.592-1.563 8.275-2.756 3.357-1.481 6.423-3.456 9.548-5.37 1.407-0.884 2.95-1.543 4.339-2.511 3.799-2.654 7.252-5.74 10.588-9.009 0.482-0.473 1.081-0.843 1.506-1.338 15.082-15.387 24.592-36.654 25.691-60.331h323.651c42.607 0 77.151 36.84 77.151 82.279v189.92c0 45.293-36.166 82.32-80.374 82.32v0zM367.283 740.189c9.836 31.698 37.552 54.797 70.536 54.797h148.402c32.963 0 60.68-23.099 70.516-54.797h-289.456zM592.12 324.026c-10.513-36.756-42.241-63.766-80.084-63.766-37.863 0-69.591 26.988-80.121 63.766h-327.299c-20.657 0-40.177 5.121-57.69 14.009v-231.756c0-45.252 34.719-82.279 77.151-82.279h775.877c42.432 0 77.151 37.024 77.151 82.279v231.738c-17.515-8.885-37.032-14.009-57.671-14.009l-327.316 0.022zM559.544 352.044v22.975c0 27.974-21.293 50.662-47.507 50.662-26.252 0-47.525-22.688-47.525-50.662v-22.975c0-27.955 21.276-50.662 47.525-50.662 26.211 0 47.507 22.688 47.507 50.662v0z" />
<glyph unicode="&#xe91a;" glyph-name="trophy" d="M754.367 471.784c36.485 3.102 68.511 18.366 95.342 45.547 92.216 93.422 89.414 301.626 89.252 310.444-0.302 16.374-13.732 29.489-30.201 29.498l-151.937 0.098v63.596c0 8.302-6.767 15.030-15.112 15.030h-459.421c-8.345 0-15.112-6.728-15.112-15.030v-63.593l-151.934-0.101c-16.466-0.013-29.896-13.127-30.201-29.498-0.165-8.818-2.964-217.021 89.252-310.444 26.83-27.181 58.86-42.445 95.342-45.547 13.954-97.157 87.14-175.528 181.919-197.732v-189.167h-76.57c-4.942 0-9.569-2.403-12.396-6.434l-66.495-94.83c-3.221-4.594-3.606-10.585-1.002-15.552 2.601-4.964 7.769-8.075 13.398-8.075 0 0 407.065 0.003 407.087 0 8.345 0 15.112 6.728 15.112 15.030 0 3.636-1.533 6.598-3.46 9.57l-65.812 93.86c-2.827 4.031-7.454 6.434-12.396 6.434h-76.57v189.161c94.769 22.207 167.958 100.572 181.913 197.732v0zM878.043 797.183c-2.916-66.527-18.718-184.292-71.472-237.736-14.574-14.762-30.971-23.592-49.746-26.782v264.597l121.221-0.082zM145.981 797.183l121.192 0.079v-264.594c-18.759 3.19-35.14 11.995-49.701 26.735-52.652 53.284-68.521 171.187-71.491 237.783v0z" />
<glyph unicode="&#xe91b;" glyph-name="question" d="M511.981 935.999c-159.474 0-289.191-129.732-289.191-289.21 0-32.838 26.618-59.457 59.447-59.457 32.849 0 59.466 26.626 59.466 59.457 0 93.891 76.382 170.289 170.278 170.289 93.931 0 170.308-76.401 170.308-170.289 0-93.909-76.387-170.308-170.308-170.308-32.833 0-59.447-26.626-59.447-59.452v-207.112c0-32.838 26.618-59.457 59.447-59.457s59.466 26.622 59.466 59.457v153.861c131.043 27.491 229.76 143.924 229.76 283.016 0 159.474-129.737 289.206-289.229 289.206v0zM512.019 109.277c-41.193 0-74.644-33.416-74.644-74.633s33.454-74.644 74.644-74.644c41.228 0 74.609 33.431 74.609 74.644s-33.381 74.633-74.609 74.633v0z" />
<glyph unicode="&#xe91c;" glyph-name="search" d="M699.527 299.426c64.077 67.303 104.049 157.418 104.049 256.658 0 208.181-174.589 378.141-389.741 378.141s-389.741-169.966-389.741-378.141c0-208.181 174.589-378.141 389.741-378.141 87.591 0 168.126 27.945 233.375 75.284l289.811-281.185c7.054-6.842 15.872-10.267 24.692-10.267s18.222 3.425 24.692 10.267c13.523 13.117 13.523 34.793 0 48.477l-286.868 278.901zM94.626 556.084c0 170.535 142.85 309.699 319.202 309.699 175.767 0 319.202-138.598 319.202-309.699s-142.85-309.699-319.202-309.699c-176.353 0-319.202 139.164-319.202 309.699v0z" />
<glyph unicode="&#xe91d;" glyph-name="chart" d="M107.935 539.726c9.196 0 17.917 1.844 26.088 4.772l120.596-184.3c-16.737-15.459-27.296-37.187-27.296-61.438 0-46.78 38.872-84.713 86.805-84.713 47.935 0 86.803 37.934 86.803 84.713 0 12.985-3.222 25.126-8.558 36.131l158.326 112.949c12.343-10.273 28.104-16.68 45.559-16.68 19.303 0 36.769 7.606 49.495 19.858l161.94-98.855c-8.291-14.088-13.093-30.38-13.093-47.801 0-53.234 44.188-96.364 98.702-96.364 54.506 0 98.696 43.13 98.696 96.364 0 53.231-44.191 96.361-98.696 96.361-24.823 0-47.462-9.014-64.807-23.803l-165.7 101.188c2.384 6.914 3.974 14.194 3.974 21.897 0 38.016-31.573 68.834-70.514 68.834-38.962 0-70.544-30.82-70.544-68.834 0-9.472 1.972-18.49 5.536-26.709l-158.074-112.73c-15.503 14.116-36.16 22.933-59.035 22.933-11.357 0-22.15-2.28-32.104-6.159l-120.425 184.041c13.789 13.42 22.318 31.976 22.318 52.47 0 40.959-34.002 74.144-75.965 74.144-41.952 0-75.961-33.188-75.961-74.144-0.006-40.956 33.98-74.126 75.929-74.126v0z" />
<glyph unicode="&#xe91e;" glyph-name="owl" horiz-adv-x="970" d="M852.606 781.049c-57.098 81.582-26.169 136.361-24.89 138.546l14.27 23.378-28.603-0.54c-72.889-1.392-138.772-48.384-182.977-89.934-46.334 7.18-95.237 9.052-145.401 10.816-44.546 1.569-84.278 0.464-145.41-10.816-44.205 41.55-110.089 88.542-182.969 89.934l-27.985 0.413 13.59-23.15c1.342-2.287 32.271-57.065-24.854-138.648-59.933-85.615-117.38-299.002-69.345-476.972 29.282-108.47 92.025-187.596 186.502-235.213 18.645-11.448 45.234-21.539 77.443-29.444 6.772-47.085 40.823-75.263 42.372-76.529l12.113-9.838 10.566 11.313c18.323 19.624 28.665 41.5 34.472 59.394 23.932-2.067 48.589-3.156 73.551-3.239 19.146 0.042 38.524 0.725 57.768 2.033 11.121-36.919 37.325-58.643 38.56-59.647l12.113-9.879 10.584 11.339c22.796 24.416 33.21 52.375 37.934 71.382 39.589 8.361 71.744 19.741 93.475 33.122 94.495 47.616 157.229 126.76 186.502 235.238 48.016 177.987-9.43 391.349-69.381 476.939z" />
<glyph unicode="&#xe91f;" glyph-name="close-thin" d="M999.955 878.54l-56.577 56.452-431.378-430.554-431.38 430.554-56.575-56.452 431.38-430.557-431.38-430.525 56.575-56.45 431.38 430.525 431.378-430.525 56.577 56.45-431.409 430.525 431.409 430.557z" />
<glyph unicode="&#xe920;" glyph-name="chevron-right" horiz-adv-x="1200" d="M298.66 74.68l372.505 373.32-372.505 373.32 114.68 114.68 488-488-488-488z" />
<glyph unicode="&#xe921;" glyph-name="chevron-up" horiz-adv-x="1138" d="M155.969 151.842l427.745 384.3 385.232-426.907 131.414 118.326-503.511 559.204-559.204-503.511z" />
<glyph unicode="&#xe922;" glyph-name="chevron-down" horiz-adv-x="1202" d="M1031.029 795.12l-430.034-429.099-430.034 429.099-132.101-132.101 562.138-562.138 562.138 562.138z" />
<glyph unicode="&#xe923;" glyph-name="chevron-left" horiz-adv-x="1184" d="M893.337 821.32l-372.505-373.32 372.505-373.32-114.68-114.68-488 488 488 488z" />
<glyph unicode="&#xe924;" glyph-name="user" horiz-adv-x="819" d="M780.132 103.9c-3.637 229.617-33.629 295.043-263.108 336.458 0 0-32.3-41.16-107.593-41.16s-107.6 41.16-107.6 41.16c-226.975-40.962-258.79-105.424-262.97-329.004-0.34-18.259-0.504-19.216-0.565-17.099 0.016-3.971 0.031-11.316 0.031-24.126 0 0 54.631-110.136 371.1-110.136 316.463 0 371.1 110.136 371.1 110.136 0 8.229 0.006 13.949 0.016 17.843-0.061-1.312-0.184 1.231-0.414 15.917v0zM780.548 87.986c0.258 2.2 0.091 15.266 0 0v0 0zM38.353 91.643c-0.083 13.136-0.16 3.698 0 0v0 0zM409.434 458.672c108.513 0 196.492 106.85 196.492 238.663s-28.884 238.663-196.492 238.663-196.498-106.85-196.498-238.663c0-131.809 87.978-238.663 196.498-238.663v0z" />
<glyph unicode="&#xe925;" glyph-name="gear" d="M865.842 559.905l-24.638 59.797c0 0 57.323 132.106 52.26 137.186l-75.906 75.68c-5.244 5.216-134.63-55.087-134.63-55.087l-59.676 24.613c0 0-52.713 133.908-59.945 133.908h-107.097c-7.46 0-56.239-134.184-56.239-134.184l-59.584-24.704c0 0-132.097 57.35-137.16 52.224l-75.769-75.774c-5.244-5.216 55.063-134.647 55.063-134.647l-24.638-59.703c0 0-133.907-52.685-133.907-59.797v-107.217c0-7.479 134.224-56.287 134.224-56.287l24.638-59.613c0 0-57.323-132.015-52.307-137.095l75.858-75.865c5.155-5.126 134.586 55.178 134.586 55.178l59.72-24.704c0 0 52.713-133.814 59.993-133.814h107.097c7.413 0 56.239 134.184 56.239 134.184l59.765 24.704c0 0 131.827-57.35 136.935-52.315l75.858 75.774c5.289 5.31-55.155 134.647-55.155 134.647l24.594 59.703c0 0 133.952 52.779 133.952 59.982v107.126c0.044 7.434-134.132 56.102-134.132 56.102v0zM668.463 448.025c0-86.209-70.208-156.394-156.466-156.394-86.166 0-156.466 70.185-156.466 156.394s70.3 156.303 156.466 156.303c86.302-0.045 156.466-70.094 156.466-156.303v0z" />
<glyph unicode="&#xe926;" glyph-name="share" d="M761.997 298.667c-34.381 0-65.942-11.648-91.202-31.002l-260.947 155.904c1.32 8.004 2.16 16.128 2.16 24.431s-0.84 16.486-2.16 24.431l260.947 155.904c25.261-19.354 56.821-31.002 91.202-31.002 82.802 0 150.004 66.901 150.004 149.333s-67.202 149.333-150.004 149.333c-82.802 0-150.004-66.901-150.004-149.333 0-8.303 0.84-16.486 2.22-24.431l-260.947-155.904c-25.261 19.354-56.821 31.002-91.262 31.002-82.862 0-150.004-66.901-150.004-149.333s67.202-149.333 150.004-149.333c34.381 0 65.942 11.648 91.262 31.002l260.947-155.904c-1.32-8.004-2.22-16.128-2.22-24.431 0-82.432 67.202-149.333 150.004-149.333s150.004 66.901 150.004 149.333c0 82.432-67.202 149.333-150.004 149.333v0z" />
<glyph unicode="&#xe927;" glyph-name="pencil" horiz-adv-x="1109" d="M670.769 766.588l197.108-197.106-498.932-498.932-196.996 197.106 498.821 498.932zM1017.442 814.126l-87.902 87.902c-33.971 33.971-89.134 33.971-123.22 0l-84.203-84.203 197.108-197.108 98.216 98.216c26.348 26.35 26.348 68.84 0 95.19v0zM68.797-9.391c-3.586-16.142 10.989-30.609 27.134-26.684l219.641 53.255-196.996 197.106-49.781-223.677z" />
<glyph unicode="&#xe928;" glyph-name="arrow-down" horiz-adv-x="768" d="M470.857 314.91v621.090h-173.714v-621.090h-260.57l347.427-354.91 347.427 354.91z" />
<glyph unicode="&#xe929;" glyph-name="arrow-up" horiz-adv-x="768" d="M384 936l-347.427-354.91h260.57v-621.090h173.714v621.090h260.57z" />
<glyph unicode="&#xe92a;" glyph-name="facebook-circle" d="M512 960c-282.752 0-512-229.248-512-512s229.248-512 512-512c282.752 0 512 229.248 512 512 0 282.815-229.248 512-512 512v0zM644.352 448.065l-83.905-0.063-0.063-307.199h-115.137v307.197h-76.799v105.856l76.799 0.063-0.128 62.336c0 86.399 23.424 138.943 125.12 138.943h84.736v-105.92h-52.992c-39.615 0-41.535-14.783-41.535-42.367l-0.128-52.992h95.231l-11.198-105.854z" />
<glyph unicode="&#xe92b;" glyph-name="linkedin-circle" d="M512 960c-282.752 0-512-229.248-512-512s229.248-512 512-512c282.752 0 512 229.248 512 512 0 282.815-229.248 512-512 512v0zM384 200h-128v448.001h128v-448.001zM323.967 675.456c-33.152 0-59.967 26.88-59.967 60.033s26.88 60.033 59.967 60.033c33.152-0.063 60.033-26.944 60.033-60.033 0-33.152-26.88-60.033-60.033-60.033v0zM831.999 200h-128v276.992c0 32.449-9.28 55.167-49.152 55.167-66.113 0-78.848-55.167-78.848-55.167v-276.992h-128v448.001h128v-42.815c18.303 14.015 63.999 42.752 128 42.752 41.472 0 128-24.832 128-174.847v-273.091z" />
<glyph unicode="&#xe92c;" glyph-name="twitter-circle" d="M512 960c-282.317 0-512-229.683-512-512 0-282.295 229.683-512 512-512 282.295 0 512 229.705 512 512 0 282.317-229.663 512-512 512v0zM740.406 565.183c0.226-5.074 0.353-10.189 0.353-15.303 0-155.729-118.502-335.236-335.319-335.236-66.552 0-128.505 19.448-180.641 52.898 9.219-1.093 18.601-1.649 28.111-1.649 55.23 0 106.025 18.849 146.365 50.446-51.558 0.948-95.095 35.020-110.088 81.855 7.177-1.362 14.58-2.125 22.15-2.125 10.745 0 21.18 1.402 31.060 4.104-53.911 10.807-94.518 58.427-94.518 115.553 0 0.494 0 1.010 0.022 1.486 15.88-8.805 34.049-14.126 53.352-14.725-31.594 21.097-52.403 57.188-52.403 98.066 0 21.612 5.794 41.866 15.942 59.272 58.096-71.317 144.963-118.214 242.883-123.165-2.020 8.641-3.033 17.614-3.033 26.872 0 65.066 52.756 117.844 117.822 117.844 33.904 0 64.489-14.312 86.021-37.206 26.872 5.279 52.033 15.056 74.862 28.605-8.867-27.533-27.49-50.609-51.888-65.212 23.86 2.847 46.629 9.157 67.685 18.54-15.714-23.592-35.698-44.361-58.735-60.922v0z" />
<glyph unicode="&#xe92d;" glyph-name="heart-o" horiz-adv-x="1161" d="M603.117 35.85l-67.17 67.17c-317.827 281.236-403.235 385.149-403.235 529.12 0 131.067 100.827 231.89 231.89 231.89 71.866 0 144.596-34.019 191.482-89.43l24.417-28.856 24.417 28.856c46.886 55.41 119.613 89.43 191.482 89.43 131.067 0 231.89-100.827 231.89-231.89 0-143.971-85.41-247.889-401.812-527.782l-68.593-68.507h45.233zM557.883-9.383l22.617-22.617 89.787 89.787c330.924 292.657 421.972 403.437 421.972 574.353 0 166.395-129.465 295.86-295.86 295.86-90.758 0-181.324-42.361-240.316-112.076h48.833c-58.991 69.716-149.553 112.076-240.316 112.076-166.395 0-295.86-129.465-295.86-295.86 0-170.917 91.050-281.697 423.395-575.694l65.743-65.829z" />
<glyph unicode="&#xe92e;" glyph-name="check" horiz-adv-x="1260" d="M381.505 213.082l-227.151 227.149-124.897-124.897 299.756-299.754 0.343 0.345 54.724-54.724 846.27 846.272-127.322 127.327z" />
<glyph unicode="&#xe92f;" glyph-name="gears-circle" horiz-adv-x="960" d="M480-8c-251.843 0-456 204.157-456 456s204.157 456 456 456c251.843 0 456-204.157 456-456s-204.157-456-456-456zM485.302 370.175l-16.469 36.563c15.702 11.525 29.185 25.861 39.721 42.225l37.5-14.21c7.171-2.717 15.185 0.893 17.899 8.064l13.781 36.38c1.305 3.444 1.188 7.264-0.324 10.621s-4.296 5.974-7.74 7.279l-37.5 14.21c2.954 19.239 2.355 38.907-1.769 57.945l36.564 16.469c3.356 1.512 5.974 4.296 7.279 7.74s1.188 7.264-0.324 10.621l-15.979 35.469c-3.149 6.99-11.371 10.101-18.358 6.955l-36.563-16.469c-11.525 15.702-25.861 29.185-42.225 39.721l14.21 37.5c2.714 7.168-0.893 15.185-8.064 17.899l-36.377 13.784c-3.441 1.302-7.261 1.188-10.621-0.324-3.356-1.512-5.974-4.296-7.279-7.74l-14.207-37.497c-19.259 2.971-38.96 2.358-57.948-1.766l-16.466 36.561c-1.512 3.356-4.296 5.974-7.74 7.279-3.441 1.302-7.264 1.188-10.621-0.324l-35.472-15.979c-6.99-3.149-10.104-11.368-6.955-18.358l16.469-36.563c-15.702-11.525-29.185-25.861-39.721-42.225l-37.5 14.21c-3.441 1.302-7.261 1.185-10.621-0.324-3.356-1.512-5.974-4.296-7.279-7.74l-13.781-36.377c-2.714-7.168 0.893-15.185 8.064-17.899l37.5-14.21c-2.954-19.238-2.355-38.91 1.769-57.945l-36.565-16.469c-3.356-1.512-5.974-4.296-7.279-7.74s-1.188-7.264 0.324-10.621l15.979-35.469c1.511-3.356 4.296-5.974 7.737-7.279 3.447-1.305 7.264-1.191 10.621 0.324l36.564 16.469c11.525-15.703 25.858-29.185 42.225-39.721l-14.21-37.5c-2.714-7.168 0.893-15.185 8.064-17.899l36.38-13.781c1.585-0.598 3.254-0.899 4.918-0.899 1.947 0 3.893 0.409 5.703 1.225 3.356 1.512 5.974 4.296 7.279 7.74l14.207 37.497c19.259-2.968 38.962-2.358 57.948 1.766l16.466-36.561c1.512-3.356 4.296-5.974 7.74-7.279s7.267-1.191 10.621 0.324l35.469 15.976c6.993 3.149 10.11 11.368 6.961 18.358zM462.298 502.133c-13.778-36.371-49.16-60.805-88.036-60.805-11.372 0-22.587 2.066-33.33 6.135-23.512 8.907-42.147 26.436-52.469 49.361-10.326 22.922-11.105 48.494-2.198 72.006 13.778 36.371 49.16 60.805 88.037 60.805 11.371 0 22.587-2.066 33.33-6.135 23.512-8.907 42.147-26.436 52.47-49.358 10.329-22.925 11.108-48.497 2.198-72.009zM770.945 312.574c-2.487 2.711-5.957 4.325-9.631 4.483l-26.147 1.121c-2.408 12.341-6.755 24.253-12.862 35.253l19.283 17.698c5.65 5.183 6.024 13.965 0.841 19.613l-19.146 20.862c-2.487 2.711-5.957 4.325-9.634 4.483-3.672 0.137-7.267-1.156-9.981-3.642l-19.28-17.698c-10.437 7.028-21.933 12.378-34.021 15.83l1.121 26.147c0.327 7.661-5.615 14.135-13.276 14.461l-28.289 1.214c-7.62 0.289-14.134-5.615-14.461-13.273l-1.121-26.147c-12.34-2.408-24.253-6.755-35.253-12.859l-17.698 19.283c-2.487 2.711-5.957 4.325-9.631 4.483-3.676 0.149-7.267-1.156-9.981-3.642l-20.862-19.146c-5.65-5.183-6.024-13.965-0.841-19.613l17.698-19.283c-7.028-10.437-12.378-21.93-15.83-34.021l-26.144 1.121c-7.626 0.309-14.137-5.614-14.464-13.273l-1.214-28.289c-0.158-3.677 1.153-7.267 3.642-9.981 2.487-2.711 5.957-4.325 9.634-4.483l26.144-1.118c2.408-12.341 6.754-24.254 12.859-35.255l-19.28-17.698c-2.711-2.487-4.325-5.957-4.483-9.631-0.158-3.677 1.153-7.268 3.642-9.981l19.146-20.862c2.487-2.711 5.957-4.325 9.634-4.483 3.663-0.146 7.267 1.156 9.981 3.642l19.28 17.698c10.437-7.028 21.933-12.378 34.021-15.83l-1.121-26.147c-0.327-7.661 5.615-14.135 13.273-14.461l28.289-1.214c0.2-0.009 0.397-0.012 0.595-0.012 3.47 0 6.821 1.299 9.386 3.654 2.711 2.487 4.325 5.957 4.483 9.631l1.121 26.147c12.34 2.408 24.253 6.755 35.253 12.859l17.698-19.283c2.487-2.711 5.957-4.325 9.631-4.483 3.692-0.161 7.27 1.156 9.981 3.642l20.862 19.146c5.65 5.183 6.024 13.965 0.841 19.613l-17.698 19.283c7.028 10.437 12.378 21.93 15.83 34.021l26.144-1.121c7.652-0.295 14.134 5.614 14.464 13.273l1.214 28.289c0.158 3.677-1.153 7.268-3.642 9.981zM614.576 230.493c-35.659 1.526-63.429 31.783-61.899 67.445 1.488 34.742 29.871 61.961 64.613 61.961 0.94 0 1.883-0.020 2.828-0.061 35.659-1.529 63.429-31.783 61.899-67.445-1.529-35.685-31.492-63.411-67.445-61.899z" />
<glyph unicode="&#xe930;" glyph-name="info" horiz-adv-x="410" d="M317.791 78.949l-3.114 562.507-290.274-1.883 0.58-123.083 78.816 0.438 2.321-439.219-83.6-0.288 0.652-117.573 364.31 1.958-0.726 117.498-68.964-0.355zM207.171 724.479c70.996 0.288 113.807 47.808 113.444 106.201-1.883 59.835-43.612 105.471-111.924 105.183-68.096-0.438-112.501-46.651-112.212-106.489 0.363-58.315 43.687-105.407 110.693-104.894z" />
<glyph unicode="&#xe931;" glyph-name="medal" d="M510.902 681.059c36.028 0 72.218-4.93 105.043-14.439v269.379h-216.644v-271.28c36.107 10.765 73.235 16.34 111.6 16.34zM727.552 614.451v288.723c0 18.13-13.606 32.825-31.733 32.825h-30.636v-286.982c22.977-9.509 42.671-21.072 62.369-34.564zM350.064 935.999h-25.166c-18.13 0-33.918-14.696-33.918-32.825v-290.981c19.695 13.086 39.389 24.399 59.084 33.866v289.941zM511.997 631.822c-185.515 0-335.904-150.392-335.904-335.911s150.393-335.911 335.904-335.911c185.522 0 335.911 150.392 335.911 335.911s-150.392 335.911-335.911 335.911z" />
<glyph unicode="&#xe932;" glyph-name="caret-down" horiz-adv-x="1392" d="M63.984 764.008h1264.031l-632.015-632.015z" />
<glyph unicode="&#xe933;" glyph-name="caret-up" horiz-adv-x="1392" d="M63.984 131.992h1264.031l-632.015 632.015z" />
<glyph unicode="&#xe934;" glyph-name="file-excel-o" horiz-adv-x="967" d="M858.501 724.429l-167.142 167.142c-19.823 19.823-59.465 36.429-87.858 36.429h-480.001c-28.394 0-51.429-23.035-51.429-51.429v-857.142c0-28.394 23.035-51.429 51.429-51.429h720c28.394 0 51.429 23.035 51.429 51.429v617.142c0 28.394-16.606 68.036-36.429 87.858v0zM620.642 855.142c9.106-3.213 18.213-8.035 21.965-11.787l167.677-167.677c3.75-3.75 8.571-12.858 11.787-21.965h-201.429v201.429zM826.359 36.57h-685.712v822.858h411.43v-222.859c0-28.394 23.035-51.429 51.429-51.429h222.859v-548.571zM301.894 105.141h150.536v56.788h-40.177l55.177 86.25c6.429 10.177 9.642 18.213 11.25 18.213h1.071c0.535-2.142 1.606-3.75 2.677-5.358 2.142-4.287 5.358-7.5 9.106-12.858l57.323-86.25h-40.713v-56.788h155.894v56.788h-36.429l-102.858 146.25 104.465 151.071h35.894v57.323h-149.465v-57.323h39.642l-55.177-85.177c-6.429-10.177-11.25-18.213-11.25-17.677h-1.071c-0.535 2.142-1.606 3.75-2.677 5.358-2.142 3.75-4.823 7.5-9.106 12.323l-56.787 85.177h40.713v57.323h-155.358v-57.323h36.429l101.25-145.713-103.929-151.606h-36.429v-56.788z" />
<glyph unicode="&#xe935;" glyph-name="eye" horiz-adv-x="1360" d="M679.614 199.206c136.969 0 248.414 111.609 248.414 248.789s-111.446 248.789-248.414 248.789c-136.969 0-248.414-111.609-248.414-248.789s111.446-248.789 248.414-248.789v0zM679.614 556.151c59.552 0 107.995-48.516 107.995-108.157s-48.441-108.157-107.995-108.157c-59.552 0-107.995 48.516-107.995 108.157s48.441 108.157 107.995 108.157v0zM1355.894 464.248c-2.097 3.918-52.512 96.807-160.94 189.976-100.049 85.958-270.602 188.417-514.964 188.417s-414.926-102.467-514.975-188.417c-108.453-93.16-158.868-186.049-160.945-189.976-5.436-10.137-5.451-22.322-0.025-32.466 2.095-3.922 52.315-96.811 160.694-190.008 99.964-85.958 270.49-188.417 515.273-188.417s415.302 102.478 515.263 188.417c108.354 93.189 158.598 186.099 160.693 190.006 5.402 10.137 5.402 22.322-0.025 32.456v0zM679.614 765.558c174.851 0 317.119-142.445 317.119-317.564s-142.243-317.564-317.119-317.564c-174.851 0-317.119 142.455-317.119 317.564s142.243 317.564 317.119 317.564v0z" />
<glyph unicode="&#xe936;" glyph-name="line-chart" horiz-adv-x="1514" d="M1210.042 709.044c0-17.015 3.47-33.232 9.718-47.969l-257.357-257.362c-14.744 6.263-30.954 9.719-47.973 9.719s-33.232-3.475-47.973-9.719l-153.732 153.732c6.263 14.744 9.718 30.954 9.718 47.973 0 67.848-55.013 122.861-122.861 122.861s-122.861-55.013-122.861-122.861c0-17.015 3.47-33.232 9.718-47.969l-257.362-257.357c-14.744 6.263-30.954 9.719-47.973 9.719-67.848 0-122.861-55.012-122.861-122.861s55.013-122.861 122.861-122.861c67.848 0 122.861 55.013 122.861 122.861 0 17.015-3.47 33.232-9.718 47.969l257.362 257.357c14.744-6.263 30.954-9.718 47.973-9.718 17.015 0 33.232 3.47 47.969 9.718l153.732-153.732c-6.263-14.744-9.718-30.954-9.718-47.969 0-67.848 55.012-122.861 122.861-122.861s122.861 55.013 122.861 122.861c0 17.015-3.47 33.232-9.718 47.969l257.357 257.362c14.744-6.263 30.954-9.718 47.973-9.718 67.848 0 122.861 55.013 122.861 122.861s-55.012 122.857-122.861 122.857c-67.848 0-122.861-55.013-122.861-122.861z" />
<glyph unicode="&#xe937;" glyph-name="plus-circle" d="M512 942.442c-2.016 0.030-4.397 0.046-6.782 0.046-274.708 0-497.93-220.433-502.435-494.066l-0.006-0.423c4.511-274.056 227.734-494.489 502.441-494.489 2.384 0 4.765 0.017 7.141 0.050l-0.36-0.004c0.609-0.003 1.33-0.004 2.052-0.004 139.033 0 265.137 55.353 357.476 145.225l-0.115-0.112c92.355 88.022 149.793 211.969 149.811 349.331v0.004c-4.511 274.056-227.734 494.489-502.441 494.489-2.384 0-4.765-0.017-7.141-0.050l0.36 0.004zM929.187 447.998c-4.498-223.593-186.815-403.124-411.063-403.124-2.153 0-4.302 0.017-6.449 0.049l0.324-0.004c-2.018-0.035-4.399-0.056-6.783-0.056-224.117 0-406.282 179.616-410.397 402.75l-0.006 0.385c3.748 223.812 186.062 403.806 410.414 403.806 2.381 0 4.757-0.021 7.129-0.061l-0.357 0.005c1.818 0.029 3.963 0.045 6.112 0.045 224.484 0 406.948-179.91 411.070-403.41l0.006-0.387zM690.027 499.727h-140.405v134.359c0 24.117-19.551 43.667-43.667 43.667s-43.667-19.551-43.667-43.667v0-134.359h-140.405c-23.746 0-42.995-19.25-42.995-42.995s19.25-42.995 42.995-42.995v0h140.405v-134.359c0-24.117 19.551-43.667 43.667-43.667s43.667 19.551 43.667 43.667v0 134.359h140.405c23.746 0 42.995 19.25 42.995 42.995s-19.25 42.995-42.995 42.995v0z" />
<glyph unicode="&#xe938;" glyph-name="compass-circle" d="M512 500.8c-28.8 0-52.8-24-52.8-52.8s24-52.8 52.8-52.8c28.8 0 52.8 24 52.8 52.8s-24 52.8-52.8 52.8v0zM512 928c-264 0-480-216-480-480s216-480 480-480c264 0 480 216 480 480s-216 480-480 480v0zM617.6 342.4l-393.6-182.4 182.4 393.6 393.6 182.4-182.4-393.6z" />
<glyph unicode="&#xe939;" glyph-name="desktop" horiz-adv-x="1097" d="M1022.674 920.201h-948.352c-23.708 0-39.516-15.805-39.516-39.516v-711.264c0-23.708 15.805-39.516 39.516-39.516h272.652c11.854 0 23.708-11.854 19.757-23.708l-19.757-82.98c-7.903-23.708 11.854-47.418 39.516-47.418h292.409c27.659 0 43.468 23.708 39.516 47.418l-19.757 82.98c-3.952 11.854 7.903 23.708 19.757 23.708h304.262c23.708 0 39.516 15.805 39.516 39.516v711.264c0 23.708-15.805 39.516-39.516 39.516v0zM904.132 307.725c0-11.854-7.903-19.757-19.757-19.757h-671.749c-11.854 0-19.757 7.903-19.757 19.757v434.662c0 11.854 7.903 19.757 19.757 19.757h671.749c11.854 0 19.757-7.903 19.757-19.757v-434.662z" />
<glyph unicode="&#xe93a;" glyph-name="users-plus" d="M343.193 511.303h-126.612v126.612h-84.407v-126.612h-126.612v-84.407h126.612v-126.612h84.407v126.612h126.612v84.407zM554.202 469.105c71.749 0 126.612 54.863 126.612 126.612s-54.863 126.612-126.612 126.612c-71.749 0-126.612-54.863-126.612-126.612s54.863-126.612 126.612-126.612zM832.74 376.248c33.759-29.541 59.085-71.752 59.085-118.169v-84.407h126.612v84.407c0 63.306-101.283 105.504-185.697 118.169zM554.202 384.691c-84.407 0-253.219-42.198-253.219-126.612v-84.407h506.432v84.407c0 84.407-168.811 126.612-253.219 126.612zM765.218 469.105c71.749 0 126.612 54.863 126.612 126.612s-54.863 126.612-126.612 126.612c-12.665 0-25.323-4.222-37.978-4.222 25.323-37.978 37.978-75.971 37.978-122.391s-12.665-84.407-37.978-122.391c12.665 0 25.323-4.222 37.978-4.222z" />
<glyph unicode="&#xe93b;" glyph-name="coins" horiz-adv-x="1097" d="M377.439 619.046c195.779 0 342.068 77.394 342.068 146.6 0 69.199-146.293 146.596-342.068 146.596s-342.064-77.397-342.064-146.596c0-69.202 146.286-146.6 342.064-146.6zM377.439 32.633c28.577 0 56.081 1.661 82.242 4.688-22.052 28.342-40.29 59.792-53.95 93.568-9.387-0.318-18.807-0.535-28.29-0.535-111.867 0-217.811 22.167-298.302 62.412-15.849 7.923-30.434 16.439-43.763 25.45v-38.989c0-69.199 146.286-146.596 342.064-146.596zM377.439 423.581c9.698 0 19.263 0.197 28.709 0.566 15.173 37.221 35.903 71.598 61.183 102.087-29.267-3.224-59.343-4.937-89.891-4.937-111.867 0-217.807 22.167-298.302 62.412-15.852 7.926-30.437 16.439-43.77 25.45v-38.989c0.003-69.201 146.289-146.593 342.068-146.593zM524.063 439.002c-21.148-31.791-36.255-67.924-43.687-106.748-3.432-17.9-5.244-36.361-5.244-55.245 0-14.195 1.035-28.156 2.993-41.816 4.812-33.566 15.328-65.302 30.531-94.212 15.953-30.338 37.056-57.562 62.156-80.484 52.158-47.64 121.531-76.738 197.567-76.738 161.7 0 293.251 131.551 293.251 293.251s-131.551 293.251-293.251 293.251c-16.712 0-33.099-1.426-49.059-4.126-81.288-13.746-151.305-61.055-195.262-127.13zM377.439 228.102c1.004 0 1.992 0.017 2.989 0.021-2.002 16.018-3.048 32.333-3.048 48.886 0 16.547 1.043 32.85 3.048 48.855-1.001 0-1.992-0.034-2.989-0.034-111.867 0-217.807 22.167-298.302 62.412-15.852 7.923-30.437 16.439-43.77 25.446v-38.985c0.003-69.201 146.289-146.6 342.068-146.6z" />
<glyph unicode="&#xe93c;" glyph-name="drag" horiz-adv-x="512" d="M122.665 768c44.184 0 80.001 35.817 80.001 80.001s-35.817 80.001-80.001 80.001c-44.184 0-80.001-35.817-80.001-80.001s35.817-80.001 80.001-80.001zM389.334 768c44.184 0 80.001 35.817 80.001 80.001s-35.817 80.001-80.001 80.001c-44.184 0-80.001-35.817-80.001-80.001s35.817-80.001 80.001-80.001zM122.665 501.332c44.184 0 80.001 35.817 80.001 80.001s-35.817 80.001-80.001 80.001c-44.184 0-80.001-35.817-80.001-80.001s35.817-80.001 80.001-80.001zM389.334 501.332c44.184 0 80.001 35.817 80.001 80.001s-35.817 80.001-80.001 80.001c-44.184 0-80.001-35.817-80.001-80.001s35.817-80.001 80.001-80.001zM122.665 234.666c44.184 0 80.001 35.817 80.001 80.001s-35.817 80.001-80.001 80.001c-44.184 0-80.001-35.817-80.001-80.001s35.817-80.001 80.001-80.001zM389.334 234.666c44.184 0 80.001 35.817 80.001 80.001s-35.817 80.001-80.001 80.001c-44.184 0-80.001-35.817-80.001-80.001s35.817-80.001 80.001-80.001zM122.665-32.001c44.184 0 80.001 35.817 80.001 80.001s-35.817 80.001-80.001 80.001c-44.184 0-80.001-35.817-80.001-80.001s35.817-80.001 80.001-80.001zM389.334-32.001c44.184 0 80.001 35.817 80.001 80.001s-35.817 80.001-80.001 80.001c-44.184 0-80.001-35.817-80.001-80.001s35.817-80.001 80.001-80.001z" />
<glyph unicode="&#xe93d;" glyph-name="money" d="M925.136 726.026h-826.301c-51.172 0-93.206-40.676-93.206-91.821v-371.089c0-28.413 18.469-59.274 33.522-72.341 11.948-10.337 37.28-20.802 59.691-20.802h826.301c51.193 0 93.228 41.996 93.228 93.142v371.089c0.015 51.145-42.032 91.821-93.228 91.821v0zM948.986 367.353c-54.339-19.5-103.128-64.445-125.648-128.006h-623.445c-23.2 61.255-72.868 106.282-124.899 126.638v164.692c53.192 19.631 101.548 63.562 124.528 127.147h624.392c22.431-67.038 69.615-109.585 125.14-128.33v-162.139h-0.065zM511.234 612.641c-90.721 0-164.253-73.529-164.253-164.271 0-90.721 73.528-164.271 164.253-164.271 90.743 0 164.271 73.553 164.271 164.271 0.015 90.743-73.528 164.271-164.271 164.271v0z" />
<glyph unicode="&#xe93e;" glyph-name="piggy-bank" d="M1007.467 636.791c-8.686 5.803-20.431 3.443-26.224-5.24-9.885-14.825-23.475-21.233-35.151-23.844-0.107 22.029-10.761 45.012-30.295 64.546-18.649 18.649-45.734 22.392-64.393 8.952-13.962-10.077-24.953-32.418-10.024-62.298 9.291-18.604 26.461-33.488 47.371-42.22-3.96-2.798-8.533-5.503-13.697-8.070-11.34-5.68-22.932-9.068-34.168-11.029-54.208 110.653-195.299 189.548-360.845 189.548-33.072 0-63.522-2.161-91.96-5.837-47.371 30.68-135.27 68.435-223.24 62.58 4.061-36.562 26.491-83.529 55.405-117.42-56.019-34.605-92.13-81.854-110.311-136.554-21.322-9.355-44.346-15.294-70.072-17.040-18.81-1.278-33.017-17.422-31.681-36.237 3.465-48.493 17.847-131.084 74.714-152.955 10.656-4.098 27.65-6.524 47.881-7.805 24.105-39.389 59.487-74.044 103.163-101.526-7.314-36.518-16.355-73.37-27.485-110.582-4.819-16.072 7.366-32.25 24.174-32.25h105.94c10.479 0 20.030 6.417 23.684 16.242 8.333 22.522 15.384 45.564 21.367 69.047 31.419-6.261 64.405-9.633 98.448-9.633 39.58 0 77.74 4.523 113.681 12.889-4.679-18.693-9.688-37.418-15.32-56.267-4.832-16.091 7.35-32.263 24.16-32.263h105.94c10.479 0 20.030 6.417 23.684 16.242 18.872 50.972 31.367 104.552 39.020 160.079 58.149 50.812 93.401 116.945 93.401 189.318 0 22.214-3.432 43.826-9.692 64.602 12.186 2.71 24.686 6.84 37.066 13.034 20.487 10.233 33.39 22.035 41.427 33.462 32.641 0.669 61.828 16.072 79.319 42.307 5.798 8.707 3.441 20.437-5.246 26.236v0zM253.089 545.411c-17.409 0-31.526 14.104-31.526 31.526s14.104 31.526 31.526 31.526c17.408 0 31.526-14.104 31.526-31.526s-14.118-31.526-31.526-31.526v0zM583.453 509.556c-13.17-4.429-27.485 2.696-31.914 15.915-3.238 9.688-15.436 20.993-39.141 20.993-18.41 0-29.278-11.941-30.489-23.729-1.529-14.684 11.818-26.447 35.671-31.438 57.057-11.959 79.029-51.802 75.485-86-3.216-31.050-25.556-56.001-55.441-65.146v-15.387c0-13.925-11.296-25.214-25.214-25.214-13.925 0-25.216 11.296-25.216 25.214v14.631c-34.602 7.999-54.753 31.475-61.739 52.346-4.415 13.212 2.71 27.516 15.928 31.914 13.206 4.429 27.499-2.696 31.911-15.915 3.498-10.45 16.95-20.993 39.123-20.993 18.391 0 29.259 11.941 30.489 23.729 1.529 14.684-11.818 26.449-35.671 31.438-57.061 11.959-79.029 51.802-75.482 86 3.216 31.053 25.556 56.003 55.438 65.149v15.396c0 13.925 11.296 25.214 25.214 25.214s25.214-11.296 25.214-25.214v-14.629c34.586-7.999 54.743-31.475 61.735-52.346 4.432-13.212-2.696-27.502-15.892-31.928v0zM875.196 635.824c-3.848 7.683-3.765 13.212-1.705 14.7 0.824 0.599 2.072 0.95 3.588 0.95 3.165 0 7.56-1.582 11.938-5.962 11.464-11.474 18.268-24.353 19.129-35.73-14.817 4.924-27.109 14.364-32.953 26.046v0z" />
<glyph unicode="&#xe93f;" glyph-name="users-arrow-right" horiz-adv-x="1483" d="M59.077 488.827c0-17.341 13.977-31.472 31.472-31.472h260.868l-110.687-110.687c-12.222-12.222-12.222-32.16 0-44.612l29.715-29.717c12.222-12.222 32.16-12.222 44.612 0l215.035 215.034c6.113 6.113 9.243 14.132 9.243 22.23 0 8.019-3.13 16.118-9.243 22.23l-215.035 215.035c-12.222 12.222-32.16 12.222-44.612 0l-29.715-29.717c-12.222-12.222-12.222-32.16 0-44.612l110.687-110.307h-260.716c-17.342 0-31.474-14.132-31.474-31.474l-0.154-41.935zM798.369 476.434c96.678 0 170.608 73.929 170.608 170.608s-73.929 170.608-170.608 170.608c-96.678 0-170.608-73.929-170.608-170.608s73.929-170.608 170.608-170.608zM1173.702 351.32c45.493-39.809 79.617-96.681 79.617-159.233v-113.737h170.608v113.737c0 85.304-136.484 142.171-250.223 159.233zM798.369 362.694c-113.737 0-341.21-56.868-341.21-170.608v-113.737h682.424v113.737c0 113.737-227.475 170.608-341.21 170.608zM1082.711 476.434c96.678 0 170.608 73.929 170.608 170.608s-73.929 170.608-170.608 170.608c-17.062 0-34.123-5.687-51.18-5.687 34.123-51.18 51.18-102.365 51.18-164.92s-17.062-113.737-51.18-164.92c17.062 0 34.123-5.687 51.18-5.687z" />
<glyph unicode="&#xe940;" glyph-name="dashboard" horiz-adv-x="1109" d="M1065.072 544.542c-29.285 68.493-68.69 127.482-118.199 177.003-49.506 49.51-108.509 88.907-177.006 118.202-68.498 29.29-140.272 43.939-215.37 43.939-75.095 0-146.882-14.651-215.366-43.939-68.485-29.302-127.482-68.69-176.992-118.202-49.52-49.52-88.909-108.509-118.208-177.003-29.29-68.493-43.936-140.274-43.936-215.366 0-108.088 29.086-207.741 87.261-298.918 7.833-11.964 18.977-17.944 33.417-17.944h867.653c14.437 0 25.577 5.98 33.412 17.944 58.18 91.59 87.266 191.236 87.266 298.918 0 75.093-14.639 146.873-43.925 215.366v0zM498.486 781.255c15.482 15.476 34.144 23.214 56.013 23.214s40.533-7.741 56.008-23.214c15.476-15.466 23.218-34.137 23.218-56.006s-7.743-40.533-23.218-56.006c-15.476-15.472-34.137-23.214-56.008-23.214-21.866 0-40.539 7.741-56.013 23.214-15.466 15.476-23.21 34.137-23.21 56.006s7.733 40.538 23.21 56.006v0zM214.432 273.168c-15.472-15.466-34.144-23.227-56.013-23.227-21.862 0-40.533 7.761-56.006 23.227-15.476 15.459-23.205 34.137-23.205 56.008 0 21.866 7.729 40.531 23.205 56.006s34.144 23.212 56.006 23.212c21.866 0 40.546-7.736 56.013-23.212s23.21-34.137 23.21-56.006c0-21.867-7.743-40.533-23.21-56.008v0zM333.257 550.42c-15.482-15.471-34.144-23.214-56.013-23.214s-40.539 7.754-56.013 23.214c-15.466 15.466-23.208 34.137-23.208 56.006s7.731 40.533 23.208 56.006c15.482 15.476 34.144 23.214 56.013 23.214 21.866 0 40.539-7.741 56.013-23.214 15.466-15.476 23.208-34.137 23.208-56.006 0-21.862-7.743-40.531-23.208-56.006v0zM683.835 545.158l-62.511-236.403c20.645-14.021 35.495-32.788 44.576-56.314 9.067-23.516 10.312-47.652 3.709-72.406-8.251-31.772-26.612-55.908-55.087-72.406-28.471-16.504-58.58-20.638-90.359-12.383-31.763 8.251-55.904 26.606-72.404 55.080-16.497 28.478-20.62 58.584-12.372 90.364 6.598 24.747 19.594 45.066 38.988 60.938 19.387 15.894 41.458 24.86 66.211 26.928l62.507 236.408c2.886 10.725 9.073 18.881 18.558 24.453 9.497 5.561 19.39 6.901 29.709 4.015 10.326-2.891 18.263-8.971 23.826-18.251 5.582-9.291 7.123-19.297 4.649-30.022v0zM775.743 550.42c-15.476 15.466-23.218 34.137-23.218 56.006s7.742 40.533 23.218 56.006c15.476 15.472 34.137 23.214 56.008 23.214 21.866 0 40.531-7.741 56.006-23.214s23.221-34.137 23.221-56.006c0-21.862-7.745-40.533-23.221-56.006-15.476-15.471-34.137-23.214-56.006-23.214s-40.533 7.743-56.008 23.214v0zM1006.574 273.168c-15.476-15.466-34.137-23.227-56.006-23.227s-40.533 7.761-56.008 23.227c-15.476 15.459-23.212 34.137-23.212 56.008 0 21.866 7.736 40.531 23.212 56.006s34.137 23.212 56.008 23.212c21.866 0 40.531-7.736 56.006-23.212s23.203-34.137 23.203-56.006c0-21.867-7.729-40.533-23.203-56.008v0z" />
<glyph unicode="&#xe941;" glyph-name="star" horiz-adv-x="884" d="M879.745 610.256c-4.363 13.274-16.693 22.239-30.676 22.239l-287.588-9.792-88.901 273.546c-4.305 13.214-16.693 22.239-30.557 22.239s-26.31-8.965-30.615-22.239l-88.842-273.546-287.647 9.792c-13.922 0-26.251-8.965-30.615-22.239-4.305-13.274 0.411-27.785 11.682-35.984l232.725-202.936-113.030-285.643c-4.305-13.334 0.411-27.845 11.682-35.984 11.266-8.198 26.548-8.198 37.873 0l256.795 169.070 256.853-169.070c5.664-4.072 12.211-6.135 18.879-6.135s13.274 2.004 18.879 6.135c11.266 8.198 15.986 22.714 11.74 35.984l-113.030 285.643 232.605 202.936c11.325 8.198 16.045 22.714 11.8 35.984v0z" />
<glyph unicode="&#xe942;" glyph-name="folder-open" horiz-adv-x="1035" d="M279.27 457.082c37.82 17.427 73.997 26.143 108.51 26.143h458.305v88.082c0 33.763-12.122 62.77-36.368 86.993-24.242 24.221-53.242 36.329-87.032 36.329h-299.656v17.615c0 33.763-12.117 62.757-36.352 86.972-24.238 24.221-53.25 36.337-87.034 36.337h-176.262c-33.785 0-62.795-12.114-87.034-36.337-24.238-24.218-36.352-53.21-36.352-86.974v-528.466c0-1.473 0.095-3.77 0.278-6.895 0.182-3.114 0.278-5.412 0.278-6.875l2.751 3.285 185.631 218.009c22.4 26.427 52.512 48.359 90.334 65.782zM1020.409 405.612c-9.726 4.778-20.831 7.173-33.323 7.173h-599.305c-24.236 0-50.585-6.519-79.041-19.551-28.457-13.046-50.585-28.894-66.37-47.627l-185.080-217.992c-11.387-12.846-17.080-24.96-17.080-36.343 0-11.006 4.868-18.899 14.597-23.662 9.729-4.778 20.837-7.165 33.325-7.165h599.322c24.232 0 50.568 6.519 79.031 19.544 28.457 13.026 50.575 28.9 66.366 47.627l185.081 217.992c11.382 12.846 17.067 24.948 17.067 36.343 0.008 11.004-4.852 18.89-14.592 23.662z" />
<glyph unicode="&#xe943;" glyph-name="graduation-cap" d="M787.912 474.618l-254.625-80.296c-7.091-2.22-14.202-3.104-21.292-3.104s-14.202 0.884-21.292 3.104l-254.625 80.296-7.985-140.172c-3.555-62.542 127.311-113.555 283.899-113.555s287.448 51.011 283.899 113.555l-7.985 140.172zM1023.017 618.342c0 6.207-3.988 11.53-9.763 13.749l-496.825 156.141c-1.768 0.447-3.104 0.447-4.439 0.447s-2.662 0-4.439-0.447l-496.825-156.141c-5.77-2.22-9.763-7.543-9.763-13.749s3.988-11.53 9.763-13.749l147.712-46.141c-27.5-38.598-40.817-94.481-43.468-146.389-16.853-9.762-28.835-27.951-28.835-49.244 0-19.957 10.199-37.262 25.731-47.462l-25.731-192.084c-0.447-3.988 0.884-7.985 3.555-11.094s6.659-4.876 10.647-4.876h85.17c3.988 0 7.985 1.768 10.647 4.876s3.988 7.091 3.555 11.094l-25.731 192.084c15.523 10.199 25.731 27.5 25.731 47.462 0 20.846-11.094 38.598-27.951 48.356 3.555 59.89 21.292 108.682 46.572 128.638l289.222-91.377c1.768-0.447 3.104-0.447 4.439-0.447s2.662 0 4.439 0.447l496.825 156.141c5.77 2.22 9.763 7.543 9.763 13.749v0z" />
<glyph unicode="&#xe944;" glyph-name="folder-open-circle" horiz-adv-x="1075" d="M537.5 960c282.336 0 512-229.684 512-512 0-282.295-229.705-512-512-512-282.316 0-512 229.705-512 512 0 282.316 229.684 512 512 512zM447.527 427.799c22.484 10.36 43.991 15.542 64.509 15.542h272.461v52.365c0 20.072-7.206 37.317-21.62 51.717-14.412 14.399-31.652 21.598-51.74 21.598h-178.145v10.472c0 20.072-7.203 37.309-21.611 51.704-14.409 14.399-31.656 21.602-51.741 21.602h-104.788c-20.085 0-37.332-7.202-51.741-21.602-14.409-14.397-21.611-31.633-21.611-51.706v-314.172c0-0.876 0.056-2.241 0.165-4.099 0.108-1.851 0.165-3.218 0.165-4.088l1.636 1.953 110.357 129.606c13.316 15.711 31.218 28.749 53.704 39.107zM888.133 397.201c-5.782 2.84-12.384 4.264-19.811 4.264h-356.286c-14.408 0-30.073-3.876-46.989-11.623-16.918-7.756-30.073-17.178-39.457-28.314l-110.029-129.595c-6.769-7.636-10.154-14.838-10.154-21.606 0-6.543 2.894-11.236 8.678-14.067 5.784-2.84 12.387-4.26 19.812-4.26h356.296c14.406 0 30.062 3.876 46.984 11.619 16.918 7.744 30.067 17.181 39.455 28.314l110.030 129.595c6.766 7.638 10.146 14.832 10.146 21.606 0.005 6.542-2.885 11.23-8.675 14.067z" />
<glyph unicode="&#xe945;" glyph-name="icon-dollar-man" d="M724.894 490.667c153.197 0 277.333-124.173 277.333-277.333s-124.136-277.333-277.333-277.333c-153.161 0-277.333 124.173-277.333 277.333s124.173 277.333 277.333 277.333zM194.201 654.979c6.905 0 13.561-2.217 19.037-6.216l3.871-3.327 41.988-42.289 41.923 42.289c4.88 4.863 11.131 8.053 17.855 9.134l5.118 0.409h324.485c35.823 0 64.899-29.282 64.899-65.362 0-34.075-25.933-62.087-58.993-65.094l-5.904-0.267h-236.679l-17.839-529.43c-3.65-31.619-28.291-55.654-58.628-58.535l-6.139-0.29h-105.79c-31.031 0-57.383 22.060-63.657 52.284l-0.983 6.15-0.26 351.556c-13.804-39.809-27.052-70.25-39.743-91.324-33.002-33.405-100.59-0.75-96.84 47.204l0.68 5.194 71.201 289.025c3.59 31.68 28.226 55.72 58.563 58.601l6.139 0.29h35.693zM741.371 386.644h-32.844v-30.298c-24.333-3.419-42.118-12.73-53.43-28.115s-16.986-32.662-16.986-51.866c0-14.621 3.201-27.497 9.529-38.518s14.585-19.568 24.733-25.678c10.148-6.147 24.26-12.33 42.3-18.586 20.077-7.092 33.062-13.021 38.881-17.604s8.729-11.384 8.729-20.368c0-8.693-2.91-16.076-8.729-22.187s-14.949-9.166-27.315-9.166c-26.406 0-42.009 14.258-46.701 42.882v0l-50.775-13.239c10.257-45.501 36.844-70.488 79.799-74.889v0-39.027h32.844v39.245c25.751 2.728 45.464 11.712 59.104 27.024v0l4.759 5.871c10.446 14.202 15.681 31.328 15.681 51.378 0 14.912-3.31 27.97-9.929 39.136-6.656 11.13-15.531 19.895-26.588 26.224s-26.369 13.094-45.865 20.186c-17.749 6.511-29.315 11.93-34.735 16.367s-8.111 10.766-8.111 19.022c0 8.111 2.801 15.021 8.438 20.695 5.565 5.71 13.021 8.547 22.296 8.547 18.477 0 32.080-12.73 40.918-38.19v0l45.246 18.55c-10.802 37.135-34.553 57.904-71.252 62.305v0 30.298zM259.098 960c71.683 0 129.794-58.527 129.794-130.723s-58.111-130.723-129.794-130.723c-71.683 0-129.794 58.527-129.794 130.723s58.111 130.723 129.794 130.723z" />
<glyph unicode="&#xe946;" glyph-name="arrow-up-thick" horiz-adv-x="768" d="M384.835 928l-347.531-528.15h185.534v-431.85h323.941v431.85h183.915z" />
<glyph unicode="&#xe947;" glyph-name="arrow-down-thick" horiz-adv-x="768" d="M384.835-32l-347.531 528.15h185.534v431.85h323.941v-431.85h183.915z" />
<glyph unicode="&#xe948;" glyph-name="flask" horiz-adv-x="796" d="M413.77 328.963c0-21.923 17.75-39.694 39.694-39.694s39.717 17.771 39.717 39.694c0 21.944-17.771 39.717-39.717 39.717s-39.694-17.771-39.694-39.717v0zM339.815 389.205c-21.394 0.046-38.707-17.359-38.707-38.661 0-21.348 17.335-38.801 38.707-38.801s38.731 17.449 38.731 38.801c0 21.303-17.405 38.755-38.731 38.661v0zM448.899 418.74c0 15.683-12.703 28.391-28.366 28.391-15.683 0-28.391-12.703-28.391-28.391s12.703-28.366 28.391-28.366c15.663 0 28.366 12.682 28.366 28.366v0zM750.697 158.4c24.146-71.452-2.408-137.747-79.343-137.747h-546.751c-76.935 0-103.445 65.676-79.409 137.174 0 0 94.821 176.684 249.33 430.258v146.852h-9.562c-13.806-0.046-25.064 11.214-25.064 24.973 0.024 13.736 11.282 24.994 25.019 25.019h39.785l-23.596 90.417h192.071l-23.71-90.441h41.621c13.782 0.024 24.994-11.259 24.994-24.994-0.070-13.758-11.214-24.973-25.019-24.973h-9.538v-146.852c154.442-253.619 249.17-429.71 249.17-429.685v0zM635.079 254.369c-10.662 20.684-138.735 242.957-177.947 307.21l-6.076 9.998h-106.171l-6.055-9.998c-39.925-65.582-161.276-277.65-174.806-300.491-0.988-1.972-2.157-4.264-3.325-6.673v-0.046h474.381z" />
<glyph unicode="&#xe949;" glyph-name="television-chart" horiz-adv-x="1152" d="M1055.141 896.239v0.423l-958.28-0.423c-31.7-2.132-54.865-26.824-58.522-56.79v-630.312c0-12.121 3.477-22.872 8.74-32.074 12.11-21.325 30.313-32.637 55.039-32.637h345.869v-86.563h-65.46c-16.307 0-28.934-12.984-28.934-29.26s12.628-29.26 28.934-29.26h387.727c16.307 0 29.463 12.985 29.463 29.26s-13.152 29.26-29.463 29.26h-66.239v86.563h346.647c24.737 0 42.443 11.31 54.384 32.637 5.419 9.653 8.613 20.513 8.613 32.074v630.312c-3.658 29.97-28.041 54.657-58.522 56.79v0zM1055.141 834.17v-625.037c0-3.704-0.786-6.191-4.479-6.191h-948.546c-3.679 0-5.256 2.487-5.256 6.191v630.228h958.28v-5.188zM238.011 324.874c7.422 0 14.833 2.931 20.343 8.737l41.105 43.316 41.866-42.353c6.37-6.447 15.467-9.415 24.414-7.97s16.645 7.126 20.665 15.249l97.074 196.244 36.891-72.98c4.059-8.027 11.718-13.621 20.602-15.040s17.906 1.506 24.26 7.871l41.533 41.571 37.5-40.673c6.059-6.572 14.889-9.868 23.766-8.856 8.882 1.004 16.749 6.183 21.187 13.937l111.048 194.095 23.357-49.778c4.63-9.81 14.507-16.381 25.357-16.381h65.532c15.488 0 28.041 12.554 28.041 28.041s-12.553 28.041-28.041 28.041h-47.759l-38.743 82.371c-4.46 9.45-13.813 15.793-24.256 16.204-10.457 0.421-20.251-4.944-25.439-14.015l-118.759-207.539-31.358 34.032c-5.178 5.615-12.42 8.89-20.051 9.045-7.61 0.143-15.002-2.794-20.398-8.197l-34.799-34.799-44.711 88.192c-4.773 9.445-14.449 15.195-25.025 15.195h-0.123c-10.622 0-20.303-5.893-25.012-15.409l-104.506-211.222-34.575 35.056c-5.338 5.398-12.68 8.421-20.226 8.365-7.593-0.078-14.829-3.211-20.052-8.719l-61.037-64.301c-10.661-11.235-10.195-28.975 1.038-39.638 5.424-5.146 12.366-7.698 19.3-7.698z" />
<glyph unicode="&#xe94a;" glyph-name="television-user" horiz-adv-x="1152" d="M1055.141 896.239v0.423l-958.28-0.423c-31.7-2.132-54.865-26.824-58.522-56.79v-630.312c0-12.121 3.477-22.872 8.74-32.074 12.11-21.325 30.313-32.637 55.039-32.637h345.869v-86.563h-65.46c-16.307 0-28.934-12.984-28.934-29.26s12.628-29.26 28.934-29.26h387.727c16.307 0 29.463 12.985 29.463 29.26s-13.152 29.26-29.463 29.26h-66.239v86.563h346.647c24.737 0 42.443 11.31 54.384 32.637 5.419 9.653 8.613 20.513 8.613 32.074v630.312c-3.658 29.97-28.041 54.657-58.522 56.79v0zM1055.141 834.17v-625.037c0-3.704-0.786-6.191-4.479-6.191h-948.546c-3.679 0-5.256 2.487-5.256 6.191v630.228h958.28v-5.188zM576.001 529.742c47.69 0 86.346 36.94 86.346 82.51s-38.661 82.51-86.346 82.51c-47.69 0-86.346-36.94-86.346-82.51s38.661-82.51 86.346-82.51zM418.566 358.268h314.869c0 79.957-70.484 150.439-157.435 150.439-86.946 0-157.435-70.476-157.435-150.439z" />
<glyph unicode="&#xe94b;" glyph-name="th-list" horiz-adv-x="1277" d="M65.49 649.447h134.298v134.298h-134.298v-134.298zM316.184 783.744v-134.298h895.327v134.298h-895.327zM65.49 112.256h134.298v134.298h-134.298v-134.298zM316.184 246.553v-134.298h895.327v134.298h-895.327zM65.49 380.851h134.298v134.298h-134.298v-134.298zM316.184 515.149v-134.298h895.327v134.298h-895.327z" />
<glyph unicode="&#xe94c;" glyph-name="grid" horiz-adv-x="827" d="M515.337 799.982c0 12.912-10.423 23.335-23.335 23.335h-157.093c-12.912 0-23.335-10.423-23.335-23.335v-157.172c0-12.912 10.423-23.335 23.335-23.335h157.093c12.912 0 23.335 10.423 23.335 23.335v157.172zM787.293 799.982c0 12.912-10.423 23.335-23.335 23.335h-157.093c-12.913 0-23.335-10.423-23.335-23.335v-157.172c0-12.912 10.422-23.335 23.335-23.335h157.172c12.913 0 23.335 10.423 23.335 23.335v157.172h-0.074zM243.382 526.556c0 12.912-10.423 23.335-23.335 23.335h-157.093c-12.912 0-23.335-10.423-23.335-23.335v-157.093c0-12.912 10.423-23.335 23.335-23.335h157.172c12.912 0 23.335 10.423 23.335 23.335v157.093h-0.074zM515.337 526.556c0 12.912-10.423 23.335-23.335 23.335h-157.093c-12.912 0-23.335-10.423-23.335-23.335v-157.093c0-12.912 10.423-23.335 23.335-23.335h157.093c12.912 0 23.335 10.423 23.335 23.335v157.093zM787.293 526.556c0 12.912-10.423 23.335-23.335 23.335h-157.093c-12.913 0-23.335-10.423-23.335-23.335v-157.093c0-12.912 10.422-23.335 23.335-23.335h157.172c12.913 0 23.335 10.423 23.335 23.335v157.093h-0.074zM220.050 276.526h-157.093c-12.912 0-23.335-10.423-23.335-23.335v-157.172c0-12.914 10.423-23.335 23.335-23.335h157.172c12.912 0 23.335 10.421 23.335 23.335v157.172c-0.074 12.832-10.496 23.335-23.408 23.335zM492.013 276.526h-157.093c-12.912 0-23.335-10.423-23.335-23.335v-157.172c0-12.914 10.423-23.335 23.335-23.335h157.093c12.912 0 23.335 10.421 23.335 23.335v157.172c0 12.832-10.424 23.335-23.335 23.335zM763.968 276.526h-157.093c-12.913 0-23.335-10.423-23.335-23.335v-157.172c0-12.914 10.422-23.335 23.335-23.335h157.172c12.913 0 23.335 10.421 23.335 23.335v157.172c-0.074 12.832-10.496 23.335-23.408 23.335zM243.382 799.982c0 12.912-10.423 23.335-23.335 23.335h-157.093c-12.912 0-23.335-10.423-23.335-23.335v-157.172c0-12.912 10.423-23.335 23.335-23.335h157.172c12.912 0 23.335 10.423 23.335 23.335v157.172h-0.074z" />
<glyph unicode="&#xe94d;" glyph-name="wallet-open-o" horiz-adv-x="1075" d="M1016.669 740.68c-150.368 48.372-648.915 207.832-648.915 207.832-0.115 0.034-0.225 0.069-0.336 0.104-37.005 11.385-76.088 4.728-107.233-18.274s-49.010-58.399-49.010-97.119v-93.607h-7.693c-63.269 0-114.738-51.469-114.738-114.738v-145.349h-31.069c-19.064 0-34.518-15.458-34.518-34.518v-227.831c0-19.064 15.458-34.518 34.518-34.518h31.069v-131.921c0-63.269 51.469-114.741 114.738-114.741h813.841c19.064 0 34.518 15.458 34.518 34.518v734.577c0 19.064-17.297 29.835-35.172 35.584zM280.216 833.223c0 16.58 7.648 31.737 20.985 41.584 9.061 6.695 19.697 10.156 30.552 10.156 5.068 0 10.183-0.752 15.208-2.283l448.537-143.064h-515.284v93.607zM160.269 304.841c6.456 6.418 10.117 15.327 10.117 24.405s-3.661 17.983-10.117 24.408c-6.418 6.422-15.292 10.113-24.405 10.113-9.078 0-17.983-3.692-24.408-10.113-6.422-6.422-10.113-15.33-10.113-24.408s3.692-17.983 10.113-24.405c6.422-6.422 15.33-10.117 24.408-10.117s17.983 3.696 24.405 10.117zM92.198 251.698v158.791h193.31c43.78 0 79.396-35.616 79.396-79.396s-35.616-79.396-79.396-79.396h-193.31zM982.803 5.039h-779.32c-25.198 0-45.699 20.504-45.699 45.702v131.921h127.723c81.844 0 148.435 66.588 148.435 148.435s-66.591 148.428-148.435 148.428h-127.723v145.352c0 25.198 20.501 45.699 45.699 45.699h779.32v-665.538z" />
<glyph unicode="&#xe94e;" glyph-name="time" horiz-adv-x="1084" d="M1029.661 541.55c-3.554 17.46-20.573 28.708-38.053 25.175-2.323-0.473-4.533-1.199-6.614-2.124-13.572-5.995-21.643-20.793-18.561-35.929 34.22-168.058-33.047-342.171-171.38-443.575-94.302-69.127-210.665-97.264-327.658-79.251-116.993 18.024-219.494 79.881-288.621 174.187-143.727 196.088-101.141 472.546 94.936 616.285 94.302 69.121 210.671 97.259 327.658 79.251 113.616-17.502 213.472-76.445 282.459-166.203l-29.66 4.264c-17.653 2.549-33.993-9.706-36.526-27.342-2.538-17.637 9.706-33.988 27.342-36.526l107.082-15.399c0.709-0.102 1.409-0.097 2.118-0.151 0.838-0.064 1.683-0.183 2.516-0.183 15.787 0 29.579 11.598 31.896 27.676l15.399 107.082c2.538 17.637-9.706 33.988-27.342 36.526-17.642 2.543-33.988-9.706-36.526-27.342l-4.361-30.321c-79.176 103.572-193.969 171.575-324.571 191.69-134.022 20.659-267.425-11.668-375.626-90.979-108.207-79.327-179.172-196.82-199.815-330.841-20.642-134.027 11.662-267.425 90.984-375.632 79.316-108.202 196.809-179.162 330.836-199.809 26.422-4.070 52.807-6.081 78.993-6.081 106.642 0 209.768 33.386 296.633 97.065 158.567 116.24 235.685 315.834 196.459 508.486v0zM710.407 428.638h-110.121c-8.076 18.276-22.766 32.972-41.042 41.042v247.524c0 17.814-14.448 32.262-32.262 32.262s-32.262-14.448-32.262-32.262v-247.524c-28.154-12.443-47.877-40.596-47.877-73.304 0-44.188 35.951-80.139 80.139-80.139 32.708 0 60.863 19.723 73.304 47.877h110.121c17.814 0 32.262 14.448 32.262 32.262s-14.448 32.262-32.262 32.262v0zM511.361 396.376c0 8.614 7.006 15.62 15.615 15.62s15.62-7.006 15.62-15.62c0-8.614-7.006-15.615-15.62-15.615s-15.615 7.006-15.615 15.615v0z" />
<glyph unicode="&#xe94f;" glyph-name="download" horiz-adv-x="1170" d="M828.351 170.887c9.708 10.047 9.708 26.227 0 35.912-10.047 10.047-26.227 10.047-35.912 0l-182.094-181.755v600.57c0 14.007-11.133 25.503-25.141 25.503s-25.503-11.495-25.503-25.503v-600.547l-181.732 181.755c-10.047 10.047-25.865 10.047-35.912 0-9.708-9.708-9.708-25.865 0-35.912l225.202-225.202c9.708-9.708 25.865-9.708 35.912 0l225.179 225.179zM508.333 351.556c13.645 0 25.141-11.133 25.141-25.141s-11.495-25.503-25.141-25.503h-242.446c-70.036 0-133.601 28.377-179.582 74.698-46.321 45.982-74.698 109.546-74.698 179.582s28.377 133.623 74.698 179.582c45.982 45.982 109.546 74.721 179.582 74.721 16.882 0 33.762-1.788 50.281-5.386 9.345-1.788 18.306-3.96 26.929-6.834 26.929 46.344 65.375 85.13 110.995 113.507 50.281 31.25 109.546 49.218 173.111 49.218 86.918 0 166.299-34.124 225.202-89.43 53.156-49.919 89.43-116.742 100.563-192.164 5.386 0.724 11.133 0.724 16.519 0.724 52.069 0 99.499-21.18 133.601-55.305 34.486-34.124 55.304-81.531 55.304-133.623 0-52.431-20.841-99.499-55.304-133.963-34.124-34.124-81.532-55.305-133.601-55.305h-307.435c-14.007 0-25.141 11.495-25.141 25.503s11.133 25.141 25.141 25.141h307.458c38.062 0 72.91 15.456 97.689 40.596 25.141 25.141 40.597 59.627 40.597 98.051 0 38.062-15.456 72.91-40.597 97.689-24.779 25.141-59.627 40.597-97.689 40.597-5.748 0-11.495-0.362-16.519-1.086-5.386-0.362-10.771-1.426-15.456-2.512-1.788-0.362-3.598-0.724-5.386-1.086-14.007-0.724-25.865 10.047-26.929 24.054-4.3 72.91-36.998 138.646-87.28 185.693-49.919 47.045-117.081 75.784-190.716 75.784-53.88 0-104.16-15.456-146.545-41.66-44.171-26.929-79.744-66.099-103.074-112.783v0c-6.109-11.858-20.117-17.244-32.676-12.22-12.22 5.386-25.141 9.345-38.424 12.22-12.921 2.512-26.227 3.96-40.596 3.96-56.391 0-107.034-22.991-144.033-59.627-36.636-36.998-59.627-88.004-59.627-144.033 0-56.391 22.991-107.034 59.627-144.033 36.998-36.636 87.642-59.627 144.033-59.627h242.423z" />
<glyph unicode="&#xe950;" glyph-name="file-pdf-o" horiz-adv-x="896" d="M848 742.858c10.667-10.667 19.809-25.143 27.429-43.429s11.429-35.048 11.429-50.286v-658.285c0-15.239-5.333-28.19-16-38.857s-23.619-16-38.857-16h-767.999c-15.239 0-28.19 5.333-38.857 16s-16 23.619-16 38.857v914.285c0 15.238 5.333 28.19 16 38.857s23.619 16 38.857 16h511.999c15.238 0 32-3.81 50.286-11.429s32.762-16.762 43.429-27.429l178.286-178.286zM594.286 882.287v-214.857h214.857c-3.81 11.047-8 18.857-12.572 23.429l-178.857 178.857c-4.571 4.571-12.381 8.762-23.429 12.572v0zM813.715 9.145v585.142h-237.714c-15.239 0-28.19 5.333-38.857 16s-16 23.619-16 38.857v237.714h-438.856v-877.713h731.428zM520.001 348.001c12.572-9.904 28.572-20.572 48-32 22.476 2.667 44.762 4 66.857 4 56 0 89.714-9.333 101.143-28 6.096-8.381 6.476-18.286 1.143-29.714 0-0.381-0.19-0.762-0.571-1.143s-0.762-0.762-1.143-1.143v-0.571c-2.286-14.476-15.81-21.714-40.572-21.714-18.286 0-40.19 3.81-65.714 11.429s-50.286 17.714-74.285 30.286c-84.191-9.143-158.857-24.952-224-47.429-58.286-99.81-104.381-149.714-138.286-149.714-5.714 0-11.047 1.333-16 4l-13.714 6.857c-0.381 0.381-1.524 1.333-3.429 2.857-3.81 3.81-4.953 10.667-3.429 20.572 3.429 15.239 14.096 32.667 32 52.286s43.048 38 75.428 55.143c5.333 3.429 9.714 2.286 13.143-3.429 0.762-0.762 1.143-1.524 1.143-2.286 19.809 32.38 40.19 69.905 61.142 112.571 25.905 51.809 45.715 101.714 59.429 149.714-9.143 31.238-14.952 61.619-17.428 91.143s-1.238 53.81 3.714 72.857c4.19 15.239 12.19 22.857 24 22.857h12.572c8.762 0 15.429-2.857 20-8.571 6.857-8 8.571-20.952 5.143-38.857-0.762-2.286-1.524-3.81-2.286-4.571 0.381-1.143 0.571-2.667 0.571-4.571v-17.143c-0.762-46.857-3.429-83.428-8-109.714 20.953-62.476 48.762-107.81 83.428-136v0zM190.858 113.145c19.809 9.143 45.905 39.238 78.285 90.285-19.429-15.239-36.095-31.238-50-48s-23.334-30.857-28.285-42.286v0zM418.287 638.858c-5.714-16-6.096-41.143-1.143-75.428 0.381 2.667 1.714 11.047 4 25.143 0 1.143 1.333 9.333 4 24.572 0.381 1.524 1.143 3.047 2.286 4.571-0.381 0.381-0.571 0.762-0.571 1.143s-0.095 0.666-0.285 0.858c-0.19 0.19-0.285 0.476-0.285 0.857-0.381 8.381-2.857 15.239-7.429 20.572 0-0.381-0.19-0.762-0.571-1.143v-1.143zM347.429 261.145c51.429 20.572 105.524 36 162.286 46.286-0.762 0.381-3.238 2.191-7.429 5.428s-7.238 5.809-9.143 7.714c-28.952 25.523-53.143 59.048-72.571 100.571-10.286-32.762-26.095-70.285-47.429-112.571-11.429-21.333-20-37.143-25.714-47.429v0zM716.571 270.288c-9.143 9.143-35.809 13.714-80 13.714 28.952-10.667 52.572-16 70.857-16 5.333 0 8.762 0.19 10.286 0.571 0 0.381-0.381 0.953-1.143 1.714v0z" />
<glyph unicode="&#xe951;" glyph-name="download-alt" horiz-adv-x="1092" d="M839.999 69.997c0 11.375-4.156 21.219-12.469 29.531s-18.156 12.469-29.531 12.469c-11.375 0-21.219-4.156-29.531-12.469s-12.469-18.156-12.469-29.531c0-11.375 4.157-21.219 12.469-29.531s18.156-12.469 29.531-12.469c11.375 0 21.219 4.156 29.531 12.469s12.469 18.156 12.469 29.531v0zM1008 69.997c0 11.375-4.157 21.219-12.469 29.531s-18.156 12.469-29.531 12.469c-11.375 0-21.219-4.156-29.531-12.469s-12.469-18.156-12.469-29.531c0-11.375 4.156-21.219 12.469-29.531s18.156-12.469 29.531-12.469c11.375 0 21.219 4.156 29.531 12.469s12.469 18.156 12.469 29.531v0zM1092 216.999v-210.001c0-17.5-6.125-32.375-18.375-44.625s-27.125-18.375-44.625-18.375h-966.005c-17.5 0-32.375 6.125-44.625 18.375s-18.375 27.125-18.375 44.625v210.001c0 17.5 6.125 32.375 18.375 44.625s27.125 18.375 44.625 18.375h305.157l88.595-89.251c25.375-24.501 55.125-36.75 89.251-36.75s63.875 12.25 89.251 36.75l89.251 89.251h304.502c17.5 0 32.375-6.125 44.625-18.375s18.375-27.125 18.375-44.625v0zM878.717 590.407c7.438-17.938 4.375-33.25-9.187-45.938l-294.002-294.002c-7.875-8.312-17.719-12.469-29.531-12.469s-21.657 4.156-29.531 12.469l-294.002 294.002c-13.563 12.688-16.625 28-9.187 45.938 7.438 17.063 20.344 25.594 38.719 25.594h168.001v294.002c0 11.375 4.156 21.219 12.469 29.531s18.156 12.469 29.531 12.469h168.001c11.375 0 21.219-4.156 29.531-12.469s12.469-18.156 12.469-29.531v-294.002h168.001c18.375 0 31.282-8.531 38.719-25.594v0z" />
<glyph unicode="&#xe952;" glyph-name="owl-alt" d="M834.96 960.001l-1.77-3.611c-6.601-14.737-27.027-73.418 21.027-154.477l4.867-7.914c84.93-133.19 173.719-588.727-110.022-743.15-21.233-14.469-55.011-27.015-96.52-35.702l-1.927-8.335c-4.473-18.337-13.097-45.997-33.775-70.812l-1.002 0.953c-5.158 5.052-28.701 29.932-34.712 68.539-21.233-1.936-45.356-3.859-68.525-3.859-28.951 0-57.902 0.968-83.962 4.827-3.859-18.341-12.546-46.337-33.778-70.461l-3.407 3.38c-8.973 9.455-32.674 38.218-34.231 79.626-34.746 8.687-63.698 19.297-83.007 32.81-279.535 152.648-195.976 599.528-112.918 737.496l2.897 4.687c62.73 97.476 24.124 166.001 24.124 166.001 69.493-0.968 133.19-54.043 174.687-98.444 45.369 8.687 96.52 13.514 148.628 13.514 54.055 0 103.271-5.795 148.64-13.514 42.465 45.369 106.163 96.52 174.687 98.444zM693.084 140.607l-25.092-41.497-23.168 41.497c-1.923-37.638 24.136-60.806 24.136-60.806 21.87 25.526 24.811 57.074 24.255 60.5l-0.131 0.306zM616.84 140.607l-25.092-41.497-23.168 41.497c-1.923-37.638 24.124-60.806 24.124-60.806 20.594 24.025 23.647 53.383 24.071 59.611l0.065 1.195zM387.142 140.607l-25.092-41.497-23.168 41.497c-1.936-37.638 24.124-60.806 24.124-60.806 17.267 21.022 22.275 46.127 23.648 56.247l0.488 4.559zM539.629 140.607l-25.092-41.497-23.168 41.497c-1.923-37.638 24.136-60.806 24.136-60.806 17.257 21.022 22.263 46.127 23.636 56.247l0.488 4.559zM463.385 140.607l-25.092-41.497-23.168 41.497c-1.923-37.638 24.124-60.806 24.124-60.806 17.267 21.022 22.275 46.127 23.648 56.247l0.488 4.559zM887.068 486.123l-7.048-3.029c-32.706-15.208-167.897-91.221-162.813-306.772v-79.147l9.065 3.547c36.113 15.428 167.467 89.723 160.795 385.401zM136.199 486.123c-6.751-342.612 170.828-387.98 169.872-388.948v79.147c5.783 245.136-169.872 309.801-169.872 309.801zM502.959 231.333l-25.104-42.465-23.156 42.465c-1.936-38.606 24.124-61.774 24.124-60.806 16.034 19.52 21.497 42.561 23.295 53.856l0.841 6.95zM581.126 231.333l-25.092-42.465-23.168 42.465c-1.923-38.606 24.136-61.774 24.136-60.806 17.267 21.022 22.268 46.127 23.638 56.247l0.486 4.559zM654.478 231.333l-25.092-42.465-23.168 42.465c-1.923-38.606 24.136-61.774 24.136-60.806 16.025 19.52 21.486 42.561 23.283 53.856l0.841 6.95zM425.748 231.333l-25.104-42.465-23.156 42.465c-1.936-38.606 24.124-61.774 24.124-60.806 16.034 19.52 21.497 42.561 23.295 53.856l0.841 6.95zM693.084 321.090l-25.092-42.465-23.168 42.465c-1.923-37.638 24.136-60.806 24.136-60.806 21.87 25.526 24.811 57.937 24.255 60.644l-0.131 0.162zM463.385 322.058l-25.092-42.465-23.168 42.465c-1.923-38.606 24.124-61.774 24.124-60.806 17.267 21.022 22.275 46.127 23.648 56.247l0.488 4.559zM386.174 322.058l-25.092-42.465-23.168 42.465c-0.968-38.606 25.092-61.774 24.136-60.806 18.49 22.523 22.916 49.734 23.878 58.179l0.246 2.627zM539.629 322.058l-25.092-42.465-23.168 42.465c-1.923-38.606 24.136-61.774 24.136-60.806 17.257 21.022 22.263 46.127 23.636 56.247l0.488 4.559zM616.84 322.058l-25.092-42.465-23.168 42.465c-1.923-38.606 24.124-61.774 24.124-60.806 17.267 21.022 22.275 46.127 23.648 56.247l0.488 4.559zM774.154 879.898c-38.606-23.168-68.525-51.152-90.725-78.179-4.827-4.827-8.687-8.687-13.514-11.578-139.941 40.529-277.946 15.437-323.315 4.827-0.968 1.923-3.859 4.827-5.783 6.751-23.168 26.060-52.12 54.055-90.725 78.179l-0.459-4.988c-1.612-14.228-8.526-57.098-36.181-105.207l-4.715-8.093c-5.265-9.76-34.458-64.476-39.716-87.287-5.795-18.341-9.655-37.638-9.655-56.947 0-95.54 76.243-172.751 166.969-172.751 56.947 0 106.163 28.951 137.050 74.308 10.61-53.075 47.292-84.93 47.292-84.93l3.26 3.095c9.214 9.19 35.341 38.41 44.033 81.835 30.875-44.388 81.071-74.308 136.082-75.276 92.649 0 166.969 78.179 166.969 172.764 3.859 22.188-0.968 40.529-5.795 57.902-2.743 13.707-15.457 40.502-25.926 61.087l-14.616 27.703c-37.638 60.806-40.529 116.785-40.529 116.785zM749.056 663.708l60.806 38.606c17.373-23.168 27.983-52.12 27.983-85.898 0-77.211-60.794-139.941-135.114-139.941-51.586 0-96.14 30.777-119.392 73.024l-3.175 6.111 62.73 39.574c4.827-32.81 32.81-58.87 66.601-58.87 37.638 0 67.557 31.843 67.557 70.448 0 21.238-8.926 40.849-23.795 53.633l-4.2 3.314zM220.177 703.278l60.794-38.606c-17.373-13.514-27.983-33.778-27.983-56.947 0-38.593 29.919-70.448 67.557-70.448 32.001 0 58.811 23.389 65.639 54.572l0.95 5.267 62.742-39.574c-22.2-46.324-68.525-79.135-122.58-79.135-74.308 0-135.114 62.73-135.114 139.941 0 29.828 8.779 56.476 23.428 78.472l4.568 6.458zM319.579 635.722c2.573 0 4.716-0.43 6.719-1.004l2.936-0.932 7.719-4.827c5.795-5.783 9.655-13.501 9.655-21.233 0-15.437-12.546-27.983-27.028-27.983s-27.028 12.546-27.028 27.983c0 15.45 12.546 27.996 27.028 27.996zM709.49 635.722c14.482 0 27.028-12.546 27.028-27.996 0-15.437-12.546-27.983-27.028-27.983s-27.028 12.546-27.028 27.983c0 7.446 2.835 14.189 7.295 18.996l2.36 2.236 7.719 4.827c2.904 0.968 5.795 1.936 9.655 1.936z" />
<glyph unicode="&#xe953;" glyph-name="ticket" horiz-adv-x="1113" d="M1063.39 510.289l-570.762-551.804c-15.523-14.991-34.506-22.485-56.95-22.485s-41.427 7.495-56.95 22.485l-79.29 76.572c23.493 22.689 35.24 50.237 35.24 82.65s-11.747 59.961-35.24 82.65c-23.493 22.689-52.021 34.032-85.583 34.032s-62.089-11.344-85.583-34.032l-78.661 76.572c-15.523 14.991-23.284 33.323-23.284 54.998s7.761 40.008 23.284 54.999l570.762 550.589c15.523 14.991 34.506 22.485 56.95 22.485s41.427-7.495 56.95-22.485l78.661-75.965c-23.493-22.689-35.24-50.237-35.24-82.65s11.747-59.961 35.24-82.65c23.493-22.689 52.021-34.032 85.583-34.032s62.089 11.344 85.583 34.032l79.29-75.965c15.523-14.991 23.284-33.323 23.284-54.999s-7.761-40.008-23.284-54.998zM503.955 123.176l388.898 375.567c7.971 7.698 11.957 16.813 11.957 27.347s-3.986 19.65-11.957 27.347l-227.801 219.993c-7.551 7.293-16.991 10.939-28.318 10.939s-20.767-3.646-28.317-10.939l-388.898-375.567c-7.971-7.698-11.957-16.813-11.957-27.347s3.986-19.65 11.957-27.347l227.801-219.993c7.551-7.293 16.991-10.939 28.317-10.939s20.767 3.646 28.318 10.939zM636.734 718.128l198.855-192.037-359.952-347.613-198.855 192.037 359.952 347.613z" />
<glyph unicode="&#xe954;" glyph-name="arrow-right-thin" horiz-adv-x="1249" d="M838.719 23.616c-17.547-17.547-45.177-17.547-62.723 0-16.958 16.958-16.958 45.177 0 62.093l318.046 318.042h-1049.509c-24.464 0-44.541 19.447-44.541 43.911 0 24.467 20.078 44.545 44.541 44.545h1049.509l-318.046 317.454c-16.958 17.547-16.958 45.807 0 62.723 17.547 17.547 45.177 17.547 62.723 0l393.338-393.338c16.953-16.958 16.953-45.177 0-62.093l-393.338-393.338z" />
<glyph unicode="&#xe955;" glyph-name="gears" d="M535.42 331.687l-27.801 61.717c26.502 19.454 49.265 43.655 67.051 71.277l63.301-23.986c12.106-4.588 25.63 1.509 30.214 13.61l23.264 61.408c2.203 5.811 2.006 12.26-0.549 17.926s-7.25 10.085-13.066 12.288l-63.301 23.986c4.987 32.478 3.974 65.677-2.985 97.812l61.717 27.801c5.666 2.554 10.085 7.25 12.288 13.066 2.203 5.811 2.006 12.26-0.549 17.926l-26.971 59.871c-5.315 11.8-19.196 17.049-30.987 11.74l-61.717-27.801c-19.454 26.502-43.655 49.265-71.277 67.051l23.986 63.301c4.584 12.101-1.509 25.63-13.61 30.214l-61.403 23.269c-5.806 2.198-12.255 2.006-17.926-0.549-5.666-2.554-10.085-7.25-12.288-13.066l-23.981-63.297c-32.51 5.015-65.766 3.979-97.817-2.981l-27.796 61.712c-2.554 5.666-7.25 10.085-13.066 12.288-5.806 2.198-12.26 2.006-17.926-0.549l-59.875-26.971c-11.8-5.315-17.054-19.187-11.74-30.987l27.801-61.717c-26.502-19.454-49.265-43.655-67.051-71.277l-63.301 23.986c-5.806 2.198-12.255 2.002-17.926-0.549-5.666-2.554-10.085-7.25-12.288-13.066l-23.264-61.403c-4.584-12.101 1.509-25.63 13.61-30.214l63.301-23.986c-4.987-32.473-3.974-65.682 2.985-97.812l-61.722-27.801c-5.666-2.554-10.085-7.25-12.288-13.066-2.203-5.811-2.006-12.26 0.549-17.926l26.971-59.871c2.549-5.666 7.25-10.085 13.061-12.288 5.816-2.203 12.26-2.011 17.926 0.549l61.717 27.801c19.454-26.507 43.65-49.265 71.277-67.051l-23.986-63.301c-4.584-12.101 1.509-25.63 13.61-30.214l61.408-23.264c2.676-1.012 5.492-1.519 8.3-1.519 3.285 0 6.57 0.689 9.626 2.066 5.666 2.554 10.085 7.25 12.288 13.066l23.981 63.297c32.51-5.010 65.771-3.979 97.817 2.981l27.796-61.712c2.554-5.666 7.25-10.085 13.066-12.288 5.811-2.203 12.264-2.011 17.926 0.549l59.871 26.966c11.805 5.315 17.063 19.187 11.75 30.987v0zM496.588 554.433c-23.26-61.394-82.98-102.639-148.604-102.639-19.196 0-38.125 3.487-56.261 10.357-39.686 15.035-71.142 44.626-88.571 83.322-17.429 38.692-18.746 81.86-3.712 121.546 23.26 61.394 82.98 102.639 148.604 102.639 19.196 0 38.125-3.487 56.261-10.357 39.686-15.035 71.142-44.626 88.571-83.317 17.434-38.696 18.751-81.864 3.712-121.55v0zM1017.583 234.457c-4.199 4.579-10.053 7.301-16.257 7.569l-44.138 1.893c-4.063 20.831-11.402 40.941-21.713 59.505l32.548 29.872c9.537 8.75 10.17 23.573 1.42 33.105l-32.318 35.215c-4.199 4.579-10.053 7.301-16.262 7.569-6.195 0.229-12.269-1.95-16.848-6.149l-32.543-29.872c-17.617 11.861-37.024 20.892-57.428 26.722l1.893 44.138c0.553 12.93-9.481 23.859-22.411 24.412l-47.751 2.049c-12.865 0.488-23.859-9.481-24.413-22.406l-1.893-44.138c-20.827-4.063-40.936-11.402-59.505-21.708l-29.872 32.548c-4.199 4.579-10.053 7.301-16.257 7.569-6.205 0.253-12.269-1.95-16.848-6.149l-35.215-32.318c-9.537-8.75-10.17-23.573-1.42-33.105l29.872-32.548c-11.861-17.617-20.892-37.019-26.722-57.428l-44.133 1.893c-12.874 0.521-23.864-9.477-24.417-22.406l-2.049-47.751c-0.267-6.209 1.945-12.269 6.149-16.848 4.199-4.579 10.053-7.301 16.262-7.569l44.133-1.889c4.063-20.831 11.402-40.941 21.708-59.51l-32.543-29.872c-4.579-4.199-7.301-10.053-7.569-16.257-0.267-6.209 1.945-12.269 6.149-16.848l32.318-35.215c4.199-4.579 10.053-7.301 16.262-7.569 6.181-0.248 12.269 1.95 16.848 6.149l32.543 29.872c17.617-11.861 37.024-20.892 57.428-26.722l-1.893-44.138c-0.553-12.93 9.477-23.859 22.406-24.412l47.751-2.048c0.337-0.014 0.67-0.019 1.003-0.019 5.858 0 11.515 2.193 15.846 6.167 4.579 4.199 7.301 10.053 7.569 16.257l1.893 44.138c20.827 4.063 40.936 11.402 59.505 21.708l29.872-32.548c4.199-4.579 10.053-7.301 16.257-7.569 6.233-0.272 12.274 1.95 16.848 6.149l35.215 32.318c9.537 8.75 10.17 23.573 1.42 33.105l-29.872 32.548c11.861 17.617 20.892 37.019 26.722 57.428l44.133-1.893c12.916-0.497 23.859 9.477 24.417 22.406l2.049 47.751c0.267 6.209-1.945 12.269-6.149 16.848v0zM753.634 95.903c-60.194 2.578-107.068 53.651-104.486 113.845 2.512 58.647 50.422 104.589 109.070 104.589 1.584 0 3.177-0.033 4.775-0.103 60.194-2.582 107.068-53.651 104.486-113.845-2.582-60.236-53.16-107.036-113.845-104.486v0z" />
<glyph unicode="&#xe956;" glyph-name="zoom-in" d="M630.154 546.46v-39.385c0-5.333-1.949-9.949-5.846-13.846s-8.513-5.846-13.846-5.846h-354.461c-5.333 0-9.949 1.949-13.846 5.846s-5.846 8.513-5.846 13.846v39.385c0 5.333 1.949 9.949 5.846 13.846s8.513 5.846 13.846 5.846h354.461c5.333 0 9.949-1.949 13.846-5.846s5.846-8.513 5.846-13.846v0zM708.922 526.767c0 75.897-26.974 140.821-80.923 194.768s-118.872 80.923-194.768 80.923c-75.897 0-140.821-26.974-194.768-80.923s-80.923-118.872-80.923-194.768c0-75.897 26.974-140.82 80.923-194.768s118.872-80.923 194.768-80.923c75.897 0 140.82 26.974 194.768 80.923s80.923 118.872 80.923 194.768v0zM1023.999 14.768c0-21.744-7.692-40.308-23.077-55.692s-33.949-23.077-55.692-23.077c-22.154 0-40.615 7.795-55.385 23.385l-211.076 210.461c-73.436-50.872-155.282-76.308-245.537-76.308-58.667 0-114.769 11.385-168.308 34.154s-99.692 53.538-138.462 92.308c-38.769 38.769-69.538 84.923-92.308 138.462s-34.154 109.641-34.154 168.308c0 58.667 11.385 114.769 34.154 168.308s53.538 99.692 92.308 138.462c38.769 38.769 84.923 69.538 138.462 92.308s109.641 34.154 168.308 34.154c58.667 0 114.769-11.385 168.308-34.154s99.692-53.538 138.462-92.308c38.769-38.769 69.538-84.923 92.308-138.462s34.154-109.641 34.154-168.308c0-90.256-25.436-172.103-76.308-245.537l211.076-211.076c15.18-15.179 22.769-33.641 22.769-55.385v0z" />
<glyph unicode="&#xe957;" glyph-name="zoom-out" d="M630.154 546.46v-39.385c0-5.333-1.949-9.949-5.846-13.846s-8.513-5.846-13.846-5.846h-137.846v-137.846c0-5.333-1.949-9.949-5.846-13.846s-8.513-5.846-13.846-5.846h-39.385c-5.333 0-9.949 1.949-13.846 5.846s-5.846 8.513-5.846 13.846v137.846h-137.846c-5.333 0-9.949 1.949-13.846 5.846s-5.846 8.513-5.846 13.846v39.385c0 5.333 1.949 9.949 5.846 13.846s8.513 5.846 13.846 5.846h137.846v137.846c0 5.333 1.949 9.949 5.846 13.846s8.513 5.846 13.846 5.846h39.385c5.333 0 9.949-1.949 13.846-5.846s5.846-8.513 5.846-13.846v-137.846h137.846c5.333 0 9.949-1.949 13.846-5.846s5.846-8.513 5.846-13.846v0zM708.922 526.767c0 75.897-26.974 140.821-80.923 194.768s-118.872 80.923-194.768 80.923c-75.897 0-140.821-26.974-194.768-80.923s-80.923-118.872-80.923-194.768c0-75.897 26.974-140.82 80.923-194.768s118.872-80.923 194.768-80.923c75.897 0 140.82 26.974 194.768 80.923s80.923 118.872 80.923 194.768v0zM1023.999 14.768c0-21.744-7.692-40.308-23.077-55.692s-33.949-23.077-55.692-23.077c-22.154 0-40.615 7.795-55.385 23.385l-211.076 210.461c-73.436-50.872-155.282-76.308-245.537-76.308-58.667 0-114.769 11.385-168.308 34.154s-99.692 53.538-138.462 92.308c-38.769 38.769-69.538 84.923-92.308 138.462s-34.154 109.641-34.154 168.308c0 58.667 11.385 114.769 34.154 168.308s53.538 99.692 92.308 138.462c38.769 38.769 84.923 69.538 138.462 92.308s109.641 34.154 168.308 34.154c58.667 0 114.769-11.385 168.308-34.154s99.692-53.538 138.462-92.308c38.769-38.769 69.538-84.923 92.308-138.462s34.154-109.641 34.154-168.308c0-90.256-25.436-172.103-76.308-245.537l211.076-211.076c15.18-15.179 22.769-33.641 22.769-55.385v0z" />
<glyph unicode="&#xe958;" glyph-name="ticket-circle" d="M512-64c282.77 0 512 229.23 512 512s-229.23 512-512 512c-282.77 0-512-229.23-512-512s229.23-512 512-512zM568.821 652.175l140.828-136-254.916-246.178-140.828 136 254.916 246.178zM474.788 230.832l275.416 265.975c5.645 5.452 8.468 11.907 8.468 19.367s-2.822 13.916-8.468 19.367l-161.328 155.798c-5.348 5.165-12.033 7.747-20.055 7.747s-14.707-2.582-20.055-7.747l-275.417-265.975c-5.645-5.452-8.468-11.907-8.468-19.367s2.823-13.916 8.468-19.367l161.328-155.798c5.348-5.165 12.033-7.747 20.055-7.747s14.707 2.582 20.055 7.747zM870.977 504.985l-404.212-390.786c-10.993-10.616-24.437-15.924-40.332-15.924s-29.339 5.308-40.332 15.924l-56.153 54.228c16.638 16.068 24.957 35.578 24.957 58.532s-8.319 42.464-24.957 58.532c-16.638 16.068-36.841 24.101-60.609 24.101s-43.972-8.034-60.609-24.101l-55.707 54.228c-10.993 10.616-16.489 23.599-16.489 38.949s5.496 28.333 16.489 38.949l404.212 389.925c10.993 10.616 24.437 15.924 40.332 15.924s29.339-5.308 40.332-15.924l55.707-53.798c-16.638-16.068-24.957-35.578-24.957-58.532s8.319-42.464 24.957-58.532c16.638-16.068 36.841-24.101 60.609-24.101s43.972 8.034 60.609 24.101l56.153-53.798c10.993-10.616 16.489-23.599 16.489-38.949s-5.496-28.333-16.489-38.949z" />
<glyph unicode="&#xe959;" glyph-name="external-link" horiz-adv-x="896" d="M840.779 896.002h-308.088c-30.454 0-55.226-24.776-55.226-55.226s24.773-55.226 55.226-55.226h174.76l-291.52-291.517c-10.435-10.428-16.18-24.296-16.18-39.052s5.741-28.621 16.174-39.041c10.432-10.441 24.296-16.19 39.052-16.19 14.752 0 28.621 5.744 39.056 16.181l291.517 291.519v-174.76c0-30.452 24.776-55.226 55.226-55.226s55.226 24.776 55.226 55.226v308.088c0 30.452-24.777 55.226-55.226 55.226zM634.75 94.669h-540.079v540.079h406.19l94.675 94.675h-548.202c-26.142 0-47.337-21.195-47.337-47.337v-634.753c0-26.143 21.195-47.337 47.337-47.337h634.753c26.143 0 47.337 21.194 47.337 47.337v548.2l-94.675-94.675v-406.188z" />
<glyph unicode="&#xe95a;" glyph-name="box-o" horiz-adv-x="1325" d="M1146.26 802.24v0c5.412 3.088 11.537 3.686 17.132 2.258 0.714-0.187 1.29-0.578 1.958-0.808 1.91-0.668 3.754-1.522 5.435-2.672 0.759-0.53 1.428-1.196 2.119-1.842 1.405-1.244 2.649-2.649 3.731-4.262 2.258-3.386 3.848-7.208 4.077-11.469 0.53-10.225-5.78-19.575-15.453-22.938l-18.056-6.264-9.489 16.558c-6.309 11.033-2.487 25.128 8.545 31.437zM751.246 664.335v0c12.713 0 23.029-10.294 23.023-23.032v-16.373l-15.475-5.366c-12.047-4.193-25.128 2.187-29.296 14.209-0.966 2.74-1.221 5.527-1.128 8.267 0.071 1.751 0.578 3.34 1.014 4.975 0.323 1.267 0.462 2.578 0.991 3.777 0.623 1.334 1.59 2.417 2.443 3.615s1.567 2.487 2.649 3.525c0.946 0.876 2.119 1.428 3.179 2.142 1.405 0.969 2.788 1.981 4.445 2.626 2.536 0.966 5.253 1.635 8.154 1.635zM248.080 765.579l-11.242-3.686-34.82-31.322v51.704c0 7.831 4.145 14.396 10.109 18.564 1.567 1.082 3.134 2.187 4.93 2.856 2.51 0.943 5.159 1.612 7.993 1.612 12.713 0 23.032-10.296 23.032-23.032v-16.697zM735.781 654.41c-1.894-2.086-4.091-3.97-5.426-6.293 1.384 2.323 3.581 4.207 5.426 6.293v0zM728.353 640.725c0.101 2.215 1.278 4.226 2.253 6.293-0.975-2.1-2.102-4.107-2.253-6.293v0zM735.447 655.319c1.823 1.945 4.196 3.172 6.293 4.758-2.103-1.586-4.471-2.814-6.293-4.758v0zM248.080 782.253v-16.697l366.319 120.217 460.605-107.828-331.312-114.9c-0.229-0.068-0.391-0.277-0.62-0.368 2.555 0.966 5.273 1.635 8.154 1.635 12.713 0 23.032-10.294 23.032-23.032v-16.373l372.93 129.315-9.489 16.558c-6.309 11.033-2.487 25.125 8.545 31.434 5.412 3.063 11.537 3.66 17.135 2.258-0.162 0.045-0.277 0.139-0.436 0.185l-544.353 127.428c-4.122 0.943-8.429 0.759-12.435-0.53l-388.292-127.425c-0.3-0.094-0.508-0.346-0.808-0.462 2.51 0.943 5.159 1.612 7.993 1.612 12.735 0 23.032-10.294 23.032-23.029v0zM1165.353 803.692c2.215-1.485 4.347-3.323 6.293-5.935-1.92 2.561-4.056 4.405-6.293 5.935v0zM212.151 800.813c-0.808-0.553-1.773-0.805-2.487-1.45l-199.625-179.566c-8.222-7.369-10.041-19.598-4.307-29.041 4.284-7.069 11.838-11.1 19.714-11.1 2.672 0 5.389 0.485 8.038 1.428l122.085 45.462c11.93 4.445 17.985 17.688 13.543 29.616-4.445 11.953-17.711 17.94-29.616 13.566l-8.636-3.224 71.211 64.049v51.704c-0.054 7.825 4.117 14.413 10.081 18.558v0zM1172.907 799.156c2.332-1.837 4.468-3.913 6.293-6.293-1.825 2.381-3.885 4.423-6.293 6.293v0zM1144.995 500.867c-12.713 0-23.032-10.294-23.032-23.032v-32.359l46.061 15.96v16.398c0.003 12.735-10.316 23.032-23.029 23.032v0zM774.274-12.478v32.174l-30.469-10.386c-12.044-4.1-18.47-17.18-14.37-29.225 3.269-9.583 12.206-15.614 21.788-15.614 2.464 0 4.975 0.391 7.44 1.244h0.023c2.372 0.805 4.63 2.003 6.655 3.592 5.641 4.397 8.933 11.12 8.933 18.215v0zM1121.963 138.277l-347.688-118.56v-32.174c0-7.117-3.292-13.84-8.913-18.196-2.026-1.567-4.284-2.763-6.655-3.592l393.704 134.268c9.327 3.179 15.592 11.953 15.592 21.788v339.63l-46.061-15.96v-307.201l0.023-0.003zM1163.396 804.499c1.536-0.409 2.863-1.278 4.348-1.793-1.536 0.516-2.814 1.384-4.348 1.793v0zM1170.788 801.020c1.737-1.228 3.172-2.713 4.707-4.091-1.586 1.384-3.021 2.92-4.707 4.091v0zM1177.699 793.699c-0.277 0.485-0.759 0.759-1.059 1.199 2.258-3.363 3.845-7.208 4.077-11.469 0.53-10.225-5.78-19.598-15.453-22.938l-18.056-6.264 120.056-209.669-329.196-114.024-92.007 132.678c-7.256 10.409-21.627 13.058-32.058 5.78-10.455-7.231-13.035-21.604-5.803-32.058l101.955-147.026c4.4-6.309 11.537-9.903 18.932-9.903 2.51 0 5.066 0.391 7.531 1.267l185.325 64.207v32.359c0 12.735 10.319 23.032 23.032 23.032s23.032-10.294 23.032-23.032v-16.398l140.577 48.687c6.471 2.258 11.63 7.256 14.025 13.702 2.394 6.403 1.819 13.566-1.59 19.53l-143.32 250.344zM212.151 797.375c2.001 2.385 3.996 4.82 6.293 6.293-2.355-1.467-4.294-3.859-6.293-6.293v0zM751.246-37.029c2.555 0 5.066 0.919 7.463 2.763h-0.023c-2.464-1.894-4.975-2.763-7.44-2.763v0zM729.458-19.895c-4.1 12.044 2.326 25.125 14.37 29.225l30.469 10.386v605.213l-15.475-5.366c-12.067-4.191-25.148 2.187-29.296 14.209-0.943 2.74-1.221 5.527-1.128 8.267 0-0.252-0.139-0.485-0.139-0.737v-624.146l-480.134 122.524v625.893l-11.239-3.686-34.82-31.322v-608.761c0-10.525 7.14-19.691 17.342-22.318l526.197-134.268c1.89-0.485 3.799-0.714 5.689-0.714-9.63-0.017-18.589 6.018-21.836 15.597v0zM744.917 662.7c-2.347-1.378-4.272-3.682-6.293-5.834 2.022 2.102 3.948 4.405 6.293 5.834v0zM731.567 650.795c-1.177-1.96-1.485-4.145-2.203-6.293 0.717 2.11 1.026 4.297 2.203 6.293v0zM664.883 688.264l-303.586 81.32c-12.367 3.363-24.919-4.029-28.214-16.283-3.292-12.276 4.006-24.919 16.283-28.211l303.586-81.32c2.003-0.53 4.006-0.782 5.964-0.782 10.18 0 19.484 6.794 22.224 17.065 3.34 12.296-3.96 24.941-16.257 28.211v0zM732.798 651.642c1.894 2.14 3.481 4.482 5.884 6.293-2.354-1.852-3.94-4.154-5.884-6.293v0z" />
<glyph unicode="&#xe95b;" glyph-name="power-off" horiz-adv-x="812" d="M812.005 414.16c0-54.98-10.749-107.493-32.246-157.542s-50.396-93.219-86.698-129.519c-36.302-36.302-79.474-65.199-129.519-86.698s-102.562-32.246-157.542-32.246c-54.98 0-107.493 10.749-157.542 32.246s-93.219 50.396-129.519 86.698c-36.302 36.302-65.199 79.474-86.698 129.519s-32.246 102.562-32.246 157.542c0 64.14 14.186 124.585 42.556 181.328s68.284 104.324 119.739 142.737c15.152 11.279 31.982 15.685 50.488 13.219s33.219-11.279 44.142-26.432c11.279-14.804 15.592-31.455 12.949-49.955s-11.363-33.396-26.167-44.672c-34.54-26.083-61.234-57.977-80.089-95.688s-28.286-77.886-28.286-120.534c0-36.65 7.135-71.632 21.414-104.935s33.566-62.115 57.887-86.435c24.321-24.321 53.132-43.616 86.435-57.887s68.284-21.414 104.935-21.414c36.65 0 71.632 7.135 104.935 21.414s62.115 33.566 86.435 57.887c24.321 24.321 43.616 53.132 57.887 86.435s21.414 68.284 21.414 104.935c0 42.642-9.429 82.825-28.286 120.534s-45.552 69.606-80.089 95.688c-14.804 11.279-23.523 26.167-26.167 44.672s1.677 35.159 12.949 49.955c10.923 15.152 25.727 23.964 44.404 26.432s35.422-1.941 50.225-13.219c51.454-38.413 91.367-85.995 119.739-142.737s42.556-117.187 42.556-181.328v0zM473.668 820.169v-338.336c0-18.33-6.695-34.185-20.092-47.582s-29.252-20.092-47.582-20.092c-18.33 0-34.185 6.695-47.582 20.092s-20.092 29.252-20.092 47.582v338.336c0 18.33 6.695 34.185 20.092 47.582s29.252 20.092 47.582 20.092c18.33 0 34.185-6.695 47.582-20.092s20.092-29.252 20.092-47.582v0z" />
<glyph unicode="&#xe95c;" glyph-name="refresh" horiz-adv-x="928" d="M804.444 457.85c-0.861 26.090 19.594 47.94 45.647 48.801 26.099 0.927 47.983-19.575 48.842-45.681 3.829-115.902-37.735-226.433-116.983-311.089s-186.793-133.423-302.688-137.253c-4.779-0.158-9.607-0.239-14.451-0.239-148.827-0.006-286.936 76.175-366.46 201.397l27.19 4.164-27.472-102.464c-5.575-20.786-24.411-35.040-45.637-35.040-4.112 0-8.227 0.542-12.265 1.625-25.214 6.766-40.173 32.685-33.411 57.898l48.875 182.311c3.249 12.112 11.175 22.437 22.031 28.697 10.853 6.262 23.754 7.958 35.866 4.714l182.307-48.878c25.213-6.768 40.169-32.687 33.409-57.901-6.76-25.217-32.682-40.175-57.9-33.416l-112.088 30.055 16.667 22.407c61.801-99.957 171.021-161.028 288.9-161.033 3.764 0 7.528 0.062 11.309 0.186 90.713 2.995 174.762 41.107 236.791 107.372 62.031 66.269 94.511 152.645 91.516 243.365zM830.095 773.938c5.471 25.53 30.597 41.792 56.128 36.315 25.52-5.474 41.781-30.595 36.319-56.122l-39.553-184.555c-2.629-12.257-10.018-22.969-20.543-29.777-6.533-4.227-13.995-6.768-21.722-7.42-4.636-0.389-9.303-0.094-13.859 0.884l-184.551 39.549c-25.526 5.47-41.788 30.598-36.318 56.123 5.465 25.529 30.592 41.791 56.123 36.32l107.514-23.040-16.138-22.231c-60.665 104.477-172.4 169.095-293.819 169.095-187.302 0-339.708-152.405-339.708-339.708 0-26.106-21.164-47.27-47.27-47.27-26.108 0-47.27 21.163-47.27 47.27 0 239.459 194.788 434.247 434.247 434.247 154.545 0 296.867-81.929 374.631-214.591l-27.646-4.448 23.435 109.362z" />
</font>
</defs>
</svg>
